Today is a free download without charge Download

TIAMAT 2013, концерт в Минске, 14 песен, CamRip 1080p. [2013, gothic doom metal, HDCamRip]

Reply to topic
 
Author
Message

Omen ®

Longevity: 8 years 4 months

Posts: 181087

Торрент-статистика

Post 20-Sep-2013 00:50

[Quote]

TIAMAT 2013, концерт в Минске, 14 песен, CamRip 1080p.
Жанр: gothic doom metal
Продолжительность: 00:58:10
Год выпуска: 2013
Описание: Концерт 23 мая 2013 года, состоявшийся в столичный клуб RE:PUBLIC (Беларусь), шведской готик-метал группы TIAMAT, 14 песен.
Доп. информация: Это моя вторая в жизни видеозапись, я непрофессионал, но больше нигде не видел видеосъемки полных песен, поэтому выкладываю то, что получилось. Аппаратура - зеркальный фотоаппарат NIKON D5100, стереомикрофон Audio-Technica ATR6250, штатив SONY VCT-R640, а также объективы - AF-S NIKKOR 18-55mm, AF-S NIKKOR 55-300mm, ГЕЛИОС 81Н 2/50мм. Фактически это 14 отдельных файлов, потому что фотоаппарат имеет фиксированную максимальную длину видеозаписи, ограниченную тепловым режимом светочувствительной матрицы.
Качество: HDCamRip
Контейнер: AVI
Видео кодек: XviD
Аудио кодек: MP3
Видео: XviD, 1920x1080, 14 Mbit/s, 29,970 fps
Аудио: mp3, 320kbps, 48.000, 2ch

Отчёт MediaInfo / BDInfo

I:\!M-Media\Tiamat_2013_live1080p\DSC_0843.avi General Complete name : I:\!M-Media\Tiamat_2013_live1080p\DSC_0843.avi Format : AVI Format/Info : Audio Video Interleave File size : 816 MiB Duration : 5mn 53s Overall bit rate : 19.4 Mbps Writing library : VirtualDub build 35390/release Video #0 ID : 0 Format : MPEG-4 Visual Format profile : Advanced [email protected] Format settings, BVOP : 2 Format settings, QPel : No Format settings, GMC : No warppoints Format settings, Matrix : Default (H.263) Muxing mode : Packed bitstream Codec ID : XVID Codec ID/Hint : XviD Duration : 5mn 53s Bit rate : 19.0 Mbps Width : 1 920 pixels Height : 1 080 pixels Display aspect ratio : 16:9 Frame rate : 29.970 fps Color space : YUV Chroma subsampling : 4:2:0 Bit depth : 8 bits Scan type : Progressive Compression mode : Lossy Bits/(Pixel*Frame) : 0.306 Stream size : 802 MiB (98%) Writing library : XviD 64 Audio #1 ID : 1 Format : MPEG Audio Format version : Version 1 Format profile : Layer 3 Mode : Joint stereo Codec ID : 55 Codec ID/Hint : MP3 Duration : 5mn 53s Bit rate mode : Constant Bit rate : 320 Kbps Channel(s) : 2 channels Sampling rate : 48.0 KHz Compression mode : Lossy Stream size : 13.5 MiB (2%) Alignment : Split accross interleaves Interleave, duration : 33 ms (1.00 video frame) Interleave, preload duration : 500 ms

Скриншоты

Other forum [Profile] [PM]
Display posts from previous:    
Reply to topic

The time now is: Today 17:03

All times are GMT + 3 Hours



You cannot post new topics in this forum
You cannot reply to topics in this forum
You cannot edit your posts in this forum
You cannot delete your posts in this forum
You cannot vote in polls in this forum
You cannot attach files in this forum
You cannot download files in this forum