Today is a free download without charge Download

Мертвый полицейский / Смертельная ярость / Dead Heat (Марк Голдблатт) [1988 г., боевик, фантастика, чёрная комедия ,ужасы BDRip720p]

Reply to topic
 
Author
Message

Delia ®

Gender:

Longevity: 9 years 6 months

Posts: 1821

Торрент-статистика

Post 28-Sep-2011 08:52

[Quote]

Мертвый полицейский / Смертельная яростьDead Heat Год выпуска: 1988
Страна: США
Жанр: боевик, фантастика, чёрная комедия ,ужасы
Продолжительность: 01:23:37
Перевод: Профессиональный (многоголосый, закадровый)
Режиссер: Марк Голдблатт
Продюссер: Дэвид Хелперн, Майкл Л. Мелцер, Аллен Олсоубрук
Сценарий: Терри Блэк
Бюджет: $5 000 000
Премьера в мире: 6 мая 1988
В ролях: Трит Уильямс , Джо Пископо , Линдсэй Фрост , Даррен МакГейвин , Винсент Прайс , Кай Люк , Роберт Пикардо
Описание: Двое детективов-друзей Роджер Мортис и Даг Бигелоу расследуют дело о дерзких ограблениях среди бела дня. Что странно, в роли грабителей выступают преступники, которых уже один раз отправляли на тот свет. След приводит их к непонятному исследовательскому институту, занимающемуся не-пойми-чем.
Но судя по всему, нос туда совать не следовало, потому как Роджера Мортиса убивают, но, использовав не-пойми-что-за-установку, Даг оживляет приятеля и друзья продолжают расследование. Только вот времени у них не очень много, потому что Роджер разлагается потихоньку. Впрочем, чтобы ему не было скучно, вскоре и Дага отправляют на тот свет. И приятели во вполне мёртвом виде начинают борьбу с нехорошими людьми, доведшими их до такой жизни…
Качество: BDRip720p
Формат: MKV
Видео кодек: H.264
Аудио кодек: AC3
Видео: English, 6846 Кбит/сек, 1280*688 (1,860), в 23,976 кадр/сек, AVC ([email protected])
Аудио: Russian, 192 Кбит/сек, 48,0 КГц, 16 бит, 2 канала(ов), AC-3
Аудио:English, 448 Кбит/сек, 48,0 КГц, 16 бит, 2 канала(ов), AC-3
Отдельно:
Аудио: Dolby Digital Audio Russian 2.0 / 48 kHz / 192 kbps (Михалев)
Аудио: Dolby Digital Audio Russian 2.0 / 48 kHz / 192 kbps (Горчаков)
Аудио: Dolby Digital Audio Russian 2.0 / 48 kHz / 192 kbps (Володарский)
Аудио: Dolby Digital Audio Russian 2.0 / 48 kHz / 192 kbps (Неизвестный)

MI:

Код:
Общее
Уникальный идентификатор         : 189737512106403339992429830544931347872 (0x8EBE1D98DFCE3813A705342F649EDDA0)
Полное имя                       : E:\торрент\Dead Heat(1988)BDRip720p\Dead Heat(1988)ВDRip720p.mkv
Формат                           : Matroska
Размер файла                     : 4,37 Гбайт
Продолжительность                : 1 ч. 23 м.
Общий поток                      : 7482 Кбит/сек
Дата кодирования                 : UTC 2011-09-28 03:23:52
Программа кодирования            : mkvmerge v4.9.1 ('Ich will') built on Jul 11 2011 23:53:15
Библиотека кодирования           : libebml v1.2.1 + libmatroska v1.1.1
Видео
Идентификатор                    : 1
Формат                           : AVC
Формат/Информация                : Advanced Video Codec
Профиль формата                  : [email protected]
Параметр CABAC формата           : Да
Параметр ReFrames формата        : 8 кадры
Идентификатор кодека             : V_MPEG4/ISO/AVC
Продолжительность                : 1 ч. 23 м.
Битрейт                          : 6846 Кбит/сек
Ширина                           : 1280 пикс.
Высота                           : 688 пикс.
Соотношение сторон               : 1,860
Частота кадров                   : 23,976 кадр/сек
Цветовое пространство            : YUV
Подвыборка цветности             : 4:2:0
Битовая глубина                  : 8 бит
Тип развёртки                    : Прогрессивная
Бит/(Пиксели*Кадры)              : 0.324
Размер потока                    : 3,91 Гбайт (89%)
Библиотека кодирования           : x264 core 118 r2085 8a62835
Настройки программы              : cabac=1 / ref=8 / deblock=1:-3:-3 / analyse=0x3:0x133 / me=umh / subme=9 / psy=1 / psy_rd=1.00:0.25 / mixed_ref=1 / me_range=32 / chroma_me=1 / trellis=2 / 8x8dct=1 / cqm=0 / deadzone=21,11 / fast_pskip=0 / chroma_qp_offset=-4 / threads=6 / sliced_threads=0 / nr=4 / decimate=1 / interlaced=0 / bluray_compat=0 / constrained_intra=0 / bframes=7 / b_pyramid=2 / b_adapt=2 / b_bias=0 / direct=3 / weightb=1 / open_gop=0 / weightp=2 / keyint=250 / keyint_min=23 / scenecut=40 / intra_refresh=0 / rc_lookahead=60 / rc=2pass / mbtree=1 / bitrate=6846 / ratetol=1.0 / qcomp=0.80 / qpmin=10 / qpmax=51 / qpstep=4 / cplxblur=20.0 / qblur=0.5 / ip_ratio=1.40 / aq=1:1.00
Язык                             : English
Аудио #1
Идентификатор                    : 2
Формат                           : AC-3
Формат/Информация                : Audio Coding 3
Расширение режима                : CM (complete main)
Идентификатор кодека             : A_AC3
Продолжительность                : 1 ч. 23 м.
Вид битрейта                     : Постоянный
Битрейт                          : 192 Кбит/сек
Канал(ы)                         : 2 канала(ов)
Расположение каналов             : Front: L R
Частота                          : 48,0 КГц
Битовая глубина                  : 16 бит
Метод сжатия                     : С потерями
Размер потока                    : 115 Мбайт (3%)
Язык                             : Russian
Аудио #2
Идентификатор                    : 3
Формат                           : AC-3
Формат/Информация                : Audio Coding 3
Расширение режима                : CM (complete main)
Идентификатор кодека             : A_AC3
Продолжительность                : 1 ч. 23 м.
Вид битрейта                     : Постоянный
Битрейт                          : 448 Кбит/сек
Канал(ы)                         : 2 канала(ов)
Расположение каналов             : Front: L R
Частота                          : 48,0 КГц
Битовая глубина                  : 16 бит
Метод сжатия                     : С потерями
Размер потока                    : 268 Мбайт (6%)
Язык                             : English

Скриншоты

               

_________________
Человек – это канат, натянутый между животным и сверхчеловеком, – канат над пропастью.
В человеке ценно то, что он мост, а не цель. Фридрих Ницше
Other forum [Profile] [PM]
Similar theme
Forum Topic Author Torrent Replies Last Post
./templates/default/images/folder_dl.gif Философия, Религия, Эзотерика З. Бичанина (ред.) | Тибетская книга мертвых (2017) [FB2] }{@R0N
1 | 0

0 | 1651

7

2017-05-31 20:15
}{@R0N Latest
./templates/default/images/folder_dl.gif Новинки (HD|DVD|BD|WEB|TV|SAT|PDTV|-Rip) Я заберу твоего мертвеца / I'll Take Your Dead (Чад Арчибальд) [2018 г., криминал, ужасы, BDRip]MVO | HDRezka Studio kilmister777
1 | 0

0 | 127

0

Yesterday 10:32
kilmister777 Latest
Display posts from previous:    
Reply to topic

The time now is: Today 08:25

All times are GMT + 3 Hours



You cannot post new topics in this forum
You cannot reply to topics in this forum
You cannot edit your posts in this forum
You cannot delete your posts in this forum
You cannot vote in polls in this forum
You cannot attach files in this forum
You cannot download files in this forum