Today is a free download without charge Download

Страшно красив / Beastly (Даниел Барнз / Daniel Barnes) [2011, США, фэнтези, драма, мелодрама, BDRemux 1080p] Dub Sub Eng + Original Eng

Reply to topic
 
Author
Message

Varius ®

Gender:

Longevity: 9 years 7 months

Posts: 2416

Location: Hell

Торрент-статистика

Post 28-Sep-2011 06:52

[Quote]

Страшно красив / Beastly Страна: США
Студия: CBS Films
Жанр: фэнтези, драма, мелодрама
Год выпуска: 2011
Продолжительность: 01:26:09
Перевод: Профессиональный (дублированный)
Cубтитры: английские(full,CDH)
Оригинальная аудиодорожка: английский
Режиссер: Даниел Барнз / Daniel Barnes
В ролях: Алекс Петтифер, Джастин Брэдли, Мэри-Кейт Олсен, Дакота Джонсон, Эрик Кнудсен, Ванесса Энн Хадженс, Карл Грабошас, Питер Краузе, Лиза Гэй Хэмилтон, Джонатан Дубски
Описание: Очередная интерпретация классической истории «Красавицы и чудовища», перемещающая зрителя в современный Манхэттен. В нём живёт изуродованный наложенным проклятьем юноша Кайл, который хочет найти любовь. Если он обретёт вторую половинку, его прежняя сказочная внешность снова вернётся к нему.
Тип релиза: BDRemux
Контейнер: MKV
Исходник:Beastly.2011.BluRay.1080p.AVC.DTS-HD.MA5.1-CHDBits.
Видео: AVC,1920x1080,23000 Kbps,23.976 fps
Аудио 1: Russian: 48 kHz, DTS, 3/2 (L,C,R,l,r) + LFE ch, ~1536.00 kbps avg
Аудио 2: English / DTS-HD Master Audio / 5.1 / 48 kHz / 2250 kbps / 16-bit (DTS Core: 5.1 / 48 kHz / 1509 kbps / 16-bit)
Чаптеры:есть

MediaInfo

General
Unique ID : 217242210061806514400045024016009584927 (0xA36F53E7B4829FEDBE4125F1D81CE11F)
Complete name : D:\Downloads\Видео\Beastly 2011 BluRay REMUX 1080p.mkv
Format : Matroska
File size : 16.0 GiB
Duration : 1h 26mn
Overall bit rate : 26.6 Mbps
Movie name : -Talian-
Encoded date : UTC 2011-09-25 05:17:15
Writing application : mkvmerge v3.3.0 ('Language') сборка от May 14 2010 17:11:50
Writing library : libebml v0.8.0 + libmatroska v0.9.0
Video
ID : 1
Format : AVC
Format/Info : Advanced Video Codec
Format profile : [email protected]
Format settings, CABAC : Yes
Format settings, ReFrames : 2 frames
Codec ID : V_MPEG4/ISO/AVC
Duration : 1h 26mn
Bit rate mode : Variable
Bit rate : 23.0 Mbps
Width : 1 920 pixels
Height : 1 080 pixels
Display aspect ratio : 16:9
Frame rate : 23.976 fps
Color space : YUV
Chroma subsampling : 4:2:0
Bit depth : 8 bits
Scan type : Progressive
Bits/(Pixel*Frame) : 0.463
Stream size : 13.9 GiB (86%)
Title : Beastly 2011 BluRay REMUX 1080p
Language : English
Audio #1
ID : 2
Format : DTS
Format/Info : Digital Theater Systems
Codec ID : A_DTS
Duration : 1h 26mn
Bit rate mode : Constant
Bit rate : 1 510 Kbps
Channel(s) : 6 channels
Channel positions : Front: L C R, Side: L R, LFE
Sampling rate : 48.0 KHz
Bit depth : 16 bits
Compression mode : Lossy
Stream size : 930 MiB (6%)
Title : DUB-R5
Language : Russian
Audio #2
ID : 3
Format : DTS
Format/Info : Digital Theater Systems
Format profile : MA / Core
Codec ID : A_DTS
Duration : 1h 26mn
Bit rate mode : Variable
Bit rate : 1 561 Kbps / 1 510 Kbps
Channel(s) : 6 channels
Channel positions : Front: L C R, Side: L R, LFE
Sampling rate : 48.0 KHz
Bit depth : 16 bits
Compression mode : Lossless / Lossy
Title : Original
Language : English
Text #1
ID : 4
Format : UTF-8
Codec ID : S_TEXT/UTF8
Codec ID/Info : UTF-8 Plain Text
Title : Sub-full
Language : English
Text #2
ID : 5
Format : UTF-8
Codec ID : S_TEXT/UTF8
Codec ID/Info : UTF-8 Plain Text
Title : Sub-CDH
Language : English
Menu
00:00:00.000 : 00:00:00.000
00:06:44.696 : 00:06:44.696
00:11:53.588 : 00:11:53.588
00:14:35.875 : 00:14:35.875
00:19:46.185 : 00:19:46.185
00:26:22.581 : 00:26:22.581
00:31:30.305 : 00:31:30.305
00:34:50.630 : 00:34:50.630
00:39:48.261 : 00:39:48.261
00:44:08.563 : 00:44:08.563
00:50:34.490 : 00:50:34.490
00:56:10.242 : 00:56:10.242
01:00:13.902 : 01:00:13.902
01:05:54.284 : 01:05:54.284
01:11:07.388 : 01:11:07.388
01:18:02.678 : 01:18:02.678
           

_________________

Создавая "Новую папку", не считайте себя Создателем - это право Вам дано Админом




Last edited by Varius on 2011-09-28 06:54; edited 1 time in total
Other forum [Profile] [PM]
Display posts from previous:    
Reply to topic

The time now is: Today 09:15

All times are GMT + 3 Hours



You cannot post new topics in this forum
You cannot reply to topics in this forum
You cannot edit your posts in this forum
You cannot delete your posts in this forum
You cannot vote in polls in this forum
You cannot attach files in this forum
You cannot download files in this forum