Today is a free download without charge Download

Discovery: На волосок от смерти / Sospeso nel Vuoto (2011) HDTVRip [H.264/1080p-LQ]

Reply to topic
 
Author
Message

UndegraundMen ®

Longevity: 7 years 7 months

Posts: 25145

Торрент-статистика

Post 18-Sep-2013 23:00

[Quote]

Discovery: На волосок от смерти / Sospeso nel Vuoto- Русское название: На волосок от смерти
Оригинальное название: Sospeso nel Vuoto
Страна: Италия
Режиссер / Телекомпания: Джон Даунер / Discovery Productions
Год выпуска: 2013
Жанр: документальный, экстрим-Описание:
Экстремал, американский акробат, воздушный гимнаст, эквилибрист, канатоходец и каскадёр, известный своими выступлениями без какой-либо страховки Ник Валленда ведет свою родословную от знаменитой цирковой семьи Валленда. Он разрабатывает и реализует инновационные и причудливые трюки. С помощью своей семьи, а так же научных знаний и многолетнего опята Ник создает захватывающие номера, в которых он показывает чудеса акробатики, балансируя на грани жизни и смерти.-Продолжительность: 00:44:05- -Перевод: Профессиональный (одноголосый, закадровый)-Видеокодек: MPEG-4 AVC/H.264
Битрейт видео: ~6130 Kbps
Размер кадра: 1920х1080
Качество видео: HDTVRip [1080p]
Аудио: AC3 5.1; 384 kbps; 48,0 КГц;

Media Info

Код:
Format                                   : Matroska
Format version                           : Version 2
File size                                : 2.00 GiB
Duration                                 : 44mn 5s
Overall bit rate                         : 6 508 Kbps
Encoded date                             : UTC 2013-08-27 13:53:37
Writing application                      : mkvmerge v6.1.0 ('Old Devil') built on Mar  4 2013 09:10:42
Writing library                          : libebml v1.3.0 + libmatroska v1.4.0
Video
ID                                       : 1
Format                                   : AVC
Format/Info                              : Advanced Video Codec
Format profile                           : [url=mailto:[email protected]][email protected][/url]
Format settings, CABAC                   : Yes
Format settings, ReFrames                : 4 frames
Codec ID                                 : V_MPEG4/ISO/AVC
Duration                                 : 44mn 5s
Bit rate                                 : 6 130 Kbps
Width                                    : 1 920 pixels
Height                                   : 1 080 pixels
Display aspect ratio                     : 16:9
Frame rate                               : 25.000 fps
Color space                              : YUV
Chroma subsampling                       : 4:2:0
Bit depth                                : 8 bits
Scan type                                : Progressive
Bits/(Pixel*Frame)                       : 0.118
Stream size                              : 1.85 GiB (92%)
Writing library                          : x264 core 130 r2273 b3065e6
Encoding settings                        : cabac=1 / ref=4 / deblock=1:-1:-1 / analyse=0x3:0x133 / me=umh /
subme=9 / psy=1 / psy_rd=1.00:0.10 / mixed_ref=1 / me_range=32 / chroma_me=1 / trellis=2 / 8x8dct=1
/ cqm=0 / deadzone=21,11 / fast_pskip=0 / chroma_qp_offset=-3 / threads=6 / lookahead_threads=1 /
sliced_threads=0 / nr=0 / decimate=1 / interlaced=0 / bluray_compat=0 / constrained_intra=0 / bframes=3
/ b_pyramid=2 / b_adapt=2 / b_bias=0 / direct=3 / weightb=1 / open_gop=0 / weightp=2 / keyint=250 /
keyint_min=25 / scenecut=40 / intra_refresh=0 / rc_lookahead=50 / rc=2pass / mbtree=1 / bitrate=6130 /
ratetol=1.0 / qcomp=0.60 / qpmin=0 / qpmax=69 / qpstep=4 / cplxblur=20.0 / qblur=0.5 / ip_ratio=1.40
/ aq=1:1.00
Default                                  : Yes
Forced                                   : No
Audio
ID                                       : 2
Format                                   : AC-3
Format/Info                              : Audio Coding 3
Mode extension                           : CM (complete main)
Codec ID                                 : A_AC3
Duration                                 : 44mn 5s
Bit rate mode                            : Constant
Bit rate                                 : 384 Kbps
Channel(s)                               : 6 channels
Channel positions                        : Front: L C R, Side: L R, LFE
Sampling rate                            : 48.0 KHz
Bit depth                                : 16 bits
Compression mode                         : Lossy
Stream size                              : 121 MiB (6%)
Default                                  : Yes
Forced                                   : No
-Скриншоты:          -
Other forum [Profile] [PM]
Display posts from previous:    
Reply to topic

The time now is: Today 01:46

All times are GMT + 3 Hours



You cannot post new topics in this forum
You cannot reply to topics in this forum
You cannot edit your posts in this forum
You cannot delete your posts in this forum
You cannot vote in polls in this forum
You cannot attach files in this forum
You cannot download files in this forum