Today is a free download without charge Download

Из ада / From Hell (Альберт Хьюз, Аллен Хьюз) [2001 г., ужасы, триллер, криминал, детектив, ВDRip720р]

Reply to topic
 
Author
Message

Delia ®

Gender:

Longevity: 9 years 6 months

Posts: 1821

Торрент-статистика

Post 27-Sep-2011 21:38

[Quote]

Из ада From Hell Год выпуска: 2001
Страна: США
Жанр: ужасы, триллер, криминал, детектив
Продолжительность: 2:02:13
Перевод: Дублированный
Режиссер: Альберт Хьюз, Аллен Хьюз
Продюссер: Джейн Хэмшер, Дон Мерфи, Томас М. Хэммел
Сценарий: Терри Хэйес, Рафаэль Иглесиас, Алан Мур
Бюджет: $35 000 000
Премьера в мире: 8 сентября 2001
В ролях: Джонни Депп, Хэзер Грэм, Иэн Холм , Робби Колтрейн, Иэн Ричардсон, Джейсон Флеминг , Кэтрин Картлидж, Теренс Харви, Сьюзэн Линч, Пол Рис...
Описание: Он — воплощение тьмы и ужаса. Он самый таинственный и знаменитый из всех серийных убийц, известных истории. Он погрузил Англию в атмосферу страха и породил массу слухов и домыслов. Убийца, который знает больше простого мясника или лаборанта. Убивая, он совершает чудовищный ритуал. Его прозвище — Джек-Потрошитель.Поймать его пытается инспектор Фред Эбберлайн. С помощью опиума он усиливает свой природный дар ясновидения и приходит к выводу, что дело Джека-Потрошителя — часть злодейского заговора, в который замешан Орден Масонов, выполняющий, в свою очередь, волю королевского дома.
Качество: ВDRip 720р
Формат: MKV
Видео кодек: H.264
Аудио кодек: AC3
Видео: English, 4352 Кбит/сек, 1280*544 (2,35:1), в 23,976 кадр/сек, AVC ([email protected])
Аудио: Russian, 448 Кбит/сек, 48,0 КГц, 16 бит, 6 канала(ов), AC-3 | дубляж
Аудио:English, 320 Кбит/сек, 48,0 КГц, 16 бит, 6 канала(ов), AC-3
Субтитры: Russian ( VobSub )
Отдельно:
Russian,384 Кбит/сек, 48,0 КГц, 16 бит, 6 канала(ов), AC-3 | MVO
Russian,448 Кбит/сек, 48,0 КГц, 16 бит, 6 канала(ов), AC-3 | MVO Карусель
Russian,448 Кбит/сек, 48,0 КГц, 16 бит, 6 канала(ов), AC-3 | VO А.Гаврилов

MI:

Код:
Общее
Уникальный идентификатор         : 194572180628075388124092809944320344949 (0x92613D28A84DBE9CAA6B7545DCC68375)
Полное имя                       : E:\торрент\From Hell (2001) BDRip720p\From Hell (2001) BDRip720p.mkv
Формат                           : Matroska
Размер файла                     : 4,37 Гбайт
Продолжительность                : 2 ч. 2 м.
Общий поток                      : 5123 Кбит/сек
Дата кодирования                 : UTC 2011-09-27 17:47:49
Программа кодирования            : mkvmerge v4.9.1 ('Ich will') built on Jul 11 2011 23:53:15
Библиотека кодирования           : libebml v1.2.1 + libmatroska v1.1.1
Видео
Идентификатор                    : 1
Формат                           : AVC
Формат/Информация                : Advanced Video Codec
Профиль формата                  : [email protected]
Параметр CABAC формата           : Да
Параметр ReFrames формата        : 8 кадры
Идентификатор кодека             : V_MPEG4/ISO/AVC
Продолжительность                : 2 ч. 2 м.
Битрейт                          : 4352 Кбит/сек
Ширина                           : 1280 пикс.
Высота                           : 544 пикс.
Соотношение сторон               : 2,35:1
Частота кадров                   : 23,976 кадр/сек
Цветовое пространство            : YUV
Подвыборка цветности             : 4:2:0
Битовая глубина                  : 8 бит
Тип развёртки                    : Прогрессивная
Бит/(Пиксели*Кадры)              : 0.261
Размер потока                    : 3,63 Гбайт (83%)
Библиотека кодирования           : x264 core 118 r2085 8a62835
Настройки программы              : cabac=1 / ref=8 / deblock=1:-3:-3 / analyse=0x3:0x133 / me=umh / subme=9 / psy=1 / psy_rd=1.00:0.25 / mixed_ref=1 / me_range=32 / chroma_me=1 / trellis=2 / 8x8dct=1 / cqm=0 / deadzone=21,11 / fast_pskip=0 / chroma_qp_offset=-4 / threads=6 / sliced_threads=0 / nr=4 / decimate=1 / interlaced=0 / bluray_compat=0 / constrained_intra=0 / bframes=6 / b_pyramid=2 / b_adapt=2 / b_bias=0 / direct=3 / weightb=1 / open_gop=0 / weightp=2 / keyint=250 / keyint_min=23 / scenecut=40 / intra_refresh=0 / rc_lookahead=60 / rc=2pass / mbtree=1 / bitrate=4352 / ratetol=1.0 / qcomp=0.80 / qpmin=10 / qpmax=51 / qpstep=4 / cplxblur=20.0 / qblur=0.5 / ip_ratio=1.40 / aq=1:1.00
Язык                             : English
Аудио #1
Идентификатор                    : 2
Формат                           : AC-3
Формат/Информация                : Audio Coding 3
Расширение режима                : CM (complete main)
Идентификатор кодека             : A_AC3
Продолжительность                : 2 ч. 2 м.
Вид битрейта                     : Постоянный
Битрейт                          : 448 Кбит/сек
Канал(ы)                         : 6 канала(ов)
Расположение каналов             : Front: L C R, Side: L R, LFE
Частота                          : 48,0 КГц
Битовая глубина                  : 16 бит
Метод сжатия                     : С потерями
Размер потока                    : 392 Мбайт (9%)
Язык                             : Russian
Аудио #2
Идентификатор                    : 3
Формат                           : AC-3
Формат/Информация                : Audio Coding 3
Расширение режима                : CM (complete main)
Идентификатор кодека             : A_AC3
Продолжительность                : 2 ч. 2 м.
Вид битрейта                     : Постоянный
Битрейт                          : 320 Кбит/сек
Канал(ы)                         : 6 канала(ов)
Расположение каналов             : Front: L C R, Side: L R, LFE
Частота                          : 48,0 КГц
Битовая глубина                  : 16 бит
Метод сжатия                     : С потерями
Размер потока                    : 280 Мбайт (6%)
Язык                             : English
Текст
Идентификатор                    : 4
Формат                           : VobSub
Режим смешивания                 : zlib
Идентификатор кодека             : S_VOBSUB
Идентификатор кодека/Информация  : The same subtitle format used on DVDs
Язык                             : Russian
Меню
00:00:00.000                     : en:Chapter 01
00:02:00.745                     : en:Chapter 03
00:07:19.814                     : en:Chapter 04
00:10:17.074                     : en:Chapter 05
00:15:16.665                     : en:Chapter 06
00:18:20.891                     : en:Chapter 07
00:21:23.532                     : en:Chapter 08
00:25:49.798                     : en:Chapter 09
00:31:51.242                     : en:Chapter 11
00:36:35.568                     : en:Chapter 12
00:41:14.972                     : en:Chapter 13
00:45:23.637                     : en:Chapter 14
00:47:52.786                     : en:Chapter 15
00:53:05.348                     : en:Chapter 16
00:56:15.789                     : en:Chapter 17
00:59:33.403                     : en:Chapter 18
01:03:02.987                     : en:Chapter 19
01:07:36.177                     : en:Chapter 20
01:11:29.576                     : en:Chapter 21
01:16:17.823                     : en:Chapter 22
01:19:29.598                     : en:Chapter 23
01:20:53.473                     : en:Chapter 24
01:25:21.908                     : en:Chapter 25
01:26:31.186                     : en:Chapter 26
01:32:43.266                     : en:Chapter 27
01:34:33.834                     : en:Chapter 28
01:38:58.933                     : en:Chapter 29
01:40:27.146                     : en:Chapter 30
01:45:57.017                     : en:Chapter 31
01:49:40.115                     : en:Chapter 32
01:51:48.993                     : en:Chapter 33
01:55:38.556                     : en:Chapter 34
02:02:12.325                     : en:Chapter 35

Скриншоты

                   

_________________
Человек – это канат, натянутый между животным и сверхчеловеком, – канат над пропастью.
В человеке ценно то, что он мост, а не цель. Фридрих Ницше
Other forum [Profile] [PM]
Display posts from previous:    
Reply to topic

The time now is: Today 19:56

All times are GMT + 3 Hours



You cannot post new topics in this forum
You cannot reply to topics in this forum
You cannot edit your posts in this forum
You cannot delete your posts in this forum
You cannot vote in polls in this forum
You cannot attach files in this forum
You cannot download files in this forum