Today is a free download without charge Download

Три толстяка (Алексей Баталов, Иосиф Шапиро) (казка, приключения, семейный 1966) DVDRip [H.264]

Reply to topic
 
Author
Message

Omen ®

Longevity: 8 years 7 months

Posts: 181087

Торрент-статистика

Post 17-Sep-2013 20:02

[Quote]

Три толстяка Год выпуска: 1966
Страны: СССР
Жанры: сказка, приключения, семейный
Продолжительность: 01:26:20
Режиссер: Алексей Баталов, Иосиф Шапиро
Сценарий: Алексей Баталов, Михаил Ольшевский, Юрий Олеша
Оператор: Сурен Шахбазян
Композитор : Николай Сидельников
Художник: Исаак Каплан, Берта Маневич
Монтаж: Раиса Изаксон
В ролях: Лина Бракните (Суок), Алексей Баталов (канатоходец-революционер Тибул), Петр Артемьев (Тутти), Валентин Никулин (доктор Гаспар Арнери), Александр Орлов (странствующий артист Август), Рина Зеленая (тетушка Ганимед), Роман Филиппов (революционер Просперо), Сергей Кулагин (1-ый толстяк)

Описание: Фильм-сказка о ловком канатоходце Тибуле, борющемся вместе с оружейником Просперо и всем трудовым народом против тиранов, трех Толстяков, которые управляют государством, пока маленький наследник Тутти не достиг совершеннолетия. Борцам за свободу помогают добрый доктор Гаспар и смелая девочка-акробат Суок, которой приходится изображать куклу, чтобы пробраться во дворец и освободить Просперо.
Зрители: СССР 23 млн
Премьера (мир): 18 ноября 1966
Релиз на DVD: 25 марта 2010, «Lizard Cinema Trade»-
Качество: DVDRip-AVC
Формат: MKV
Видео кодек: H.264 (AVC)
Аудио кодек: AC3
Видео: 704x298 (2.35:1), 25.000 fps, AVC, 1 872 Kbps
Аудио: AC3, 448 Kbps, 48.0 KHz, 6 ch

МедиаИнфо

Код:
General
Complete name : Tri Tolstyaka.1966.DVDRip-AVC.h264.almikl.mkv
Format : Matroska
File size : 1.40 GiB
Duration : 1h 26mn
Overall bit rate : 2 319 Kbps
Encoded date : UTC 2013-09-16 14:05:44
Writing application : mkvmerge v6.2.0 ('Promised Land') built on Apr 28 2013 12:22:01
Writing library : libebml v1.3.0 + libmatroska v1.4.0
Video
ID : 1
Format : AVC
Format/Info : Advanced Video Codec
Format profile : [url=mailto:[email protected]][email protected][/url]
Format settings, CABAC : Yes
Format settings, ReFrames : 6 frames
Muxing mode : Container [email protected]
Codec ID : V_MPEG4/ISO/AVC
Duration : 1h 26mn
Bit rate : 1 872 Kbps
Width : 704 pixels
Height : 298 pixels
Display aspect ratio : 2.35:1
Frame rate : 25.000 fps
Color space : YUV
Chroma subsampling : 4:2:0
Bit depth : 8 bits
Scan type : Progressive
Bits/(Pixel*Frame) : 0.357
Stream size : 1.10 GiB (79%)
Writing library : x264 core 133 r2334 a3ac64b
Encoding settings : cabac=1 / ref=6 / deblock=1:-1:-1 / analyse=0x3:0x113 / me=umh / subme=10 / psy=1 / psy_rd=1.00:0.15 / mixed_ref=1 / me_range=32 / chroma_me=1 / trellis=2 / 8x8dct=1 / cqm=0 / deadzone=21,11 / fast_pskip=1 / chroma_qp_offset=-3 / threads=12 / lookahead_threads=2 / sliced_threads=0 / nr=0 / decimate=1 / interlaced=0 / bluray_compat=0 / constrained_intra=0 / bframes=10 / b_pyramid=2 / b_adapt=2 / b_bias=0 / direct=1 / weightb=1 / open_gop=0 / weightp=2 / keyint=250 / keyint_min=25 / scenecut=40 / intra_refresh=0 / rc_lookahead=40 / rc=2pass / mbtree=1 / bitrate=1872 / ratetol=1.0 / qcomp=0.60 / qpmin=10 / qpmax=51 / qpstep=4 / cplxblur=20.0 / qblur=0.5 / ip_ratio=1.40 / aq=1:1.00
Audio
ID : 2
Format : AC-3
Format/Info : Audio Coding 3
Mode extension : CM (complete main)
Codec ID : A_AC3
Duration : 1h 26mn
Bit rate mode : Constant
Bit rate : 448 Kbps
Channel(s) : 6 channels
Channel positions : Front: L C R, Side: L R, LFE
Sampling rate : 48.0 KHz
Bit depth : 16 bits
Stream size : 277 MiB (19%)

Знаете ли Вы, что...

· Ради небольшого эпизода, где герой Алексея Баталова — Тибул, скрываясь от стражников идёт по канату над площадью, он несколько месяцев тренировался ходить по канату, чтобы сыграть эту сцену без дублёра.
Скриншоты:
                   
Other forum [Profile] [PM]
Display posts from previous:    
Reply to topic

The time now is: Today 08:56

All times are GMT + 3 Hours



You cannot post new topics in this forum
You cannot reply to topics in this forum
You cannot edit your posts in this forum
You cannot delete your posts in this forum
You cannot vote in polls in this forum
You cannot attach files in this forum
You cannot download files in this forum