Today is a free download without charge Download

Я тебя никогда не забуду (Рано Кубаева) [2013, Россия, мелодрама, HDTVRip 720p]

Reply to topic
 
Author
Message

Omen ®

Longevity: 8 years 10 months

Posts: 181086

Торрент-статистика

Post 17-Sep-2013 07:49

[Quote]

Я тебя никогда не забуду
Страна: Россия
Жанр: мелодрама
Год выпуска: 2013
Продолжительность: 01:27:07
Субтитры: нет
Режиссер: Рано Кубаева
В ролях: Екатерина Климова, Анатолий Белый, Виталий Хаев, Анастасия Лапина, Павел Юлку, Сергей Губанов, Артём Казьмин, Марта Дроздова, Елизавета Васильева
Описание: Вера – жена олигарха, дама с несносным характером по прозвищу Мымра. Больше всего попреков достается ее водителю Сергею, тайно влюбленному в свою капризную хозяйку.
Вероятно, эта любовь так и осталась бы тайной, если бы судьба не сыграла с Верой злую шутку. В автокатастрофе героиня полностью теряет память, а, придя в себя, «узнаёт», что она жена Сергея, примерная хозяйка и учительница младших классов, беззаветно любящая свою большую семью…

Автор рипа / записи: fanatus
Качество видео: HDTVRip 720p
Исходник: Запись с телеканала РОССИЯ HD (15.09.2013)
Контейнер: MKV
Видео: MPEG-4 AVC, 2761 kbps , 1280x720 (16:9), 25.000 fps, 0.120 bit/pixel
Аудио: MPEG Audio, 2 ch, 48 kHz, 192 kbps

MI исходника

General
ID : 1 (0x1)
Complete name : D:\HDTV\Ja tebja nikogda ne zabudu\Ja tebja nikogda ne zabudu.ts
Format : MPEG-TS
File size : 3.94 GiB
Duration : 1h 27mn
Overall bit rate mode : Variable
Overall bit rate : 6 477 Kbps
Maximum Overall bit rate : 35.5 Mbps
Video
ID : 4113 (0x1011)
Menu ID : 1 (0x1)
Format : AVC
Format/Info : Advanced Video Codec
Format profile : [email protected]
Format settings, CABAC : Yes
Format settings, ReFrames : 3 frames
Codec ID : 27
Duration : 1h 27mn
Bit rate mode : Variable
Bit rate : 5 963 Kbps
Maximum bit rate : 40.0 Mbps
Width : 1 920 pixels
Height : 1 080 pixels
Display aspect ratio : 16:9
Frame rate : 25.000 fps
Standard : Component
Color space : YUV
Chroma subsampling : 4:2:0
Bit depth : 8 bits
Scan type : Interlaced
Scan order : Top Field First
Bits/(Pixel*Frame) : 0.115
Stream size : 3.63 GiB (92%)
Color primaries : BT.709-5, BT.1361, IEC 61966-2-4, SMPTE RP177
Transfer characteristics : BT.709-5, BT.1361
Matrix coefficients : BT.709-5, BT.1361, IEC 61966-2-4 709, SMPTE RP177
Audio
ID : 4352 (0x1100)
Menu ID : 1 (0x1)
Format : MPEG Audio
Format version : Version 1
Format profile : Layer 2
Codec ID : 4
Duration : 1h 27mn
Bit rate mode : Constant
Bit rate : 192 Kbps
Channel(s) : 2 channels
Sampling rate : 48.0 KHz
Compression mode : Lossy
Delay relative to video : 1ms
Stream size : 120 MiB (3%)

MediaInfo

General
Unique ID : 202030337917447175956571709087879888828 (0x97FDA0B406D120E6842BBBCC99C17FBC)
Complete name : E:\Ja tebja nikogda ne zabudu.2013.x264.HDTVRip.720p.fanatus.mkv
Format : Matroska
Format version : Version 2
File size : 1.80 GiB
Duration : 1h 27mn
Overall bit rate : 2 954 Kbps
Movie name : Ja tebja nikogda ne zabudu (2013) - fanatus
Encoded date : UTC 2013-09-16 20:04:00
Writing application : mkvmerge v3.4.0 ('Rapunzel') сборка от May 15 2010 09:38:20
Writing library : libebml v0.8.0 + libmatroska v0.9.0
Video
ID : 1
Format : AVC
Format/Info : Advanced Video Codec
Format profile : [email protected]
Format settings, CABAC : Yes
Format settings, ReFrames : 9 frames
Codec ID : V_MPEG4/ISO/AVC
Duration : 1h 27mn
Bit rate : 2 761 Kbps
Width : 1 280 pixels
Height : 720 pixels
Display aspect ratio : 16:9
Frame rate : 25.000 fps
Color space : YUV
Chroma subsampling : 4:2:0
Bit depth : 8 bits
Scan type : Progressive
Bits/(Pixel*Frame) : 0.120
Stream size : 1.65 GiB (92%)
Title : Ja tebja nikogda ne zabudu (2013)
Writing library : x264 core 138 r2358 9e941d1
Encoding settings : cabac=1 / ref=9 / deblock=1:-2:-2 / analyse=0x3:0x113 / me=umh / subme=10 / psy=1 / psy_rd=1.00:0.10 / mixed_ref=1 / me_range=32 / chroma_me=1 / trellis=2 / 8x8dct=1 / cqm=0 / deadzone=21,11 / fast_pskip=0 / chroma_qp_offset=-3 / threads=16 / lookahead_threads=2 / sliced_threads=0 / nr=0 / decimate=0 / interlaced=0 / bluray_compat=0 / constrained_intra=0 / bframes=9 / b_pyramid=2 / b_adapt=2 / b_bias=0 / direct=3 / weightb=1 / open_gop=0 / weightp=2 / keyint=250 / keyint_min=25 / scenecut=40 / intra_refresh=0 / rc=2pass / mbtree=0 / bitrate=2761 / ratetol=1.0 / qcomp=0.65 / qpmin=0 / qpmax=69 / qpstep=4 / cplxblur=20.0 / qblur=0.5 / ip_ratio=1.40 / pb_ratio=1.30 / aq=1:0.90
Language : Russian
Default : Yes
Forced : No
Color primaries : BT.709-5, BT.1361, IEC 61966-2-4, SMPTE RP177
Transfer characteristics : BT.709-5, BT.1361
Matrix coefficients : BT.709-5, BT.1361, IEC 61966-2-4 709, SMPTE RP177
Audio
ID : 2
Format : MPEG Audio
Format version : Version 1
Format profile : Layer 2
Codec ID : A_MPEG/L2
Codec ID/Hint : MP2
Duration : 1h 27mn
Bit rate mode : Constant
Bit rate : 192 Kbps
Channel(s) : 2 channels
Sampling rate : 48.0 KHz
Compression mode : Lossy
Stream size : 120 MiB (6%)
Title : Original
Language : Russian
Default : Yes
Forced : No

x264 [info]

---[Information] [16.09.2013 20:32:54] raw [info]: 1280x720p 1:1 @ 25/1 fps (cfr)
---[Information] [16.09.2013 20:32:54] x264 [info]: using SAR=1/1
---[Information] [16.09.2013 20:32:54] x264 [info]: using cpu capabilities: MMX2 SSE2Fast LZCNT
---[Information] [16.09.2013 20:32:54] x264 [info]: profile High, level 4.1
---[Information] [16.09.2013 22:58:50] x264 [info]: frame I:760 Avg QP:14.80 size:121468
---[Information] [16.09.2013 22:58:50] x264 [info]: frame P:35056 Avg QP:17.79 size: 33290
---[Information] [16.09.2013 22:58:50] x264 [info]: frame B:94878 Avg QP:19.85 size: 5737
---[Information] [16.09.2013 22:58:50] x264 [info]: consecutive B-frames: 2.1% 4.5% 3.1% 83.2% 2.5% 2.9% 0.5% 0.9% 0.2% 0.2%
---[Information] [16.09.2013 22:58:50] x264 [info]: mb I I16..4: 7.0% 73.6% 19.4%
---[Information] [16.09.2013 22:58:50] x264 [info]: mb P I16..4: 0.9% 7.7% 0.8% P16..4: 41.1% 26.0% 14.4% 0.0% 0.0% skip: 9.2%
---[Information] [16.09.2013 22:58:50] x264 [info]: mb B I16..4: 0.1% 0.5% 0.1% B16..8: 32.2% 6.6% 1.5% direct: 3.0% skip:55.9% L0:35.7% L1:47.1% BI:17.1%
---[Information] [16.09.2013 22:58:50] x264 [info]: 8x8 transform intra:79.8% inter:51.9%
---[Information] [16.09.2013 22:58:50] x264 [info]: direct mvs spatial:99.3% temporal:0.7%
---[Information] [16.09.2013 22:58:50] x264 [info]: coded y,uvDC,uvAC intra: 83.3% 65.4% 36.7% inter: 16.1% 10.2% 4.4%
---[Information] [16.09.2013 22:58:50] x264 [info]: i16 v,h,dc,p: 29% 16% 10% 46%
---[Information] [16.09.2013 22:58:50] x264 [info]: i8 v,h,dc,ddl,ddr,vr,hd,vl,hu: 17% 13% 12% 7% 9% 11% 10% 10% 11%
---[Information] [16.09.2013 22:58:50] x264 [info]: i4 v,h,dc,ddl,ddr,vr,hd,vl,hu: 18% 12% 6% 8% 12% 13% 11% 10% 10%
---[Information] [16.09.2013 22:58:50] x264 [info]: i8c dc,h,v,p: 40% 26% 23% 11%
---[Information] [16.09.2013 22:58:50] x264 [info]: Weighted P-Frames: Y:1.1% UV:0.3%
---[Information] [16.09.2013 22:58:50] x264 [info]: ref P L0: 55.8% 11.1% 16.4% 4.2% 4.0% 2.6% 2.7% 1.4% 1.7% 0.1% 0.0%
---[Information] [16.09.2013 22:58:50] x264 [info]: ref B L0: 81.5% 11.3% 3.1% 1.5% 0.9% 0.9% 0.5% 0.3%
---[Information] [16.09.2013 22:58:50] x264 [info]: ref B L1: 96.1% 3.9%
---[Information] [16.09.2013 22:58:50] x264 [info]: kb/s:2760.03
---[Information] [16.09.2013 22:58:50] encoded 130694 frames, 14.92 fps, 2760.03 kb/s

Скриншот c названием фильма

Скриншоты

Source vs Rip




Other forum [Profile] [PM]
Display posts from previous:    
Reply to topic

The time now is: Today 21:41

All times are GMT + 3 Hours



You cannot post new topics in this forum
You cannot reply to topics in this forum
You cannot edit your posts in this forum
You cannot delete your posts in this forum
You cannot vote in polls in this forum
You cannot attach files in this forum
You cannot download files in this forum