Today is a free download without charge Download

1942. Крушение Лаконии / The Sinking of the Laconia (Уве Янсон / Uwe Janson) [2010, Германия, Великобритания, драма, история, Blu-Ray 1080p]

Reply to topic
 
Author
Message

Varius ®

Gender:

Longevity: 9 years 7 months

Posts: 2416

Location: Hell

Торрент-статистика

Post 27-Sep-2011 05:20

[Quote]

1942. Крушение Лаконии / The Sinking of the Laconia--Страна: Германия, Великобритания
Жанр: драма, история
Год выпуска: 2010
Продолжительность: 02:58:02--Перевод : Профессиональный (многоголосый)
Cубтитры
:русские--Режиссер:
Уве Янсон / Uwe Janson
В ролях:Эндрю Бачан (Mortimer), Брайан Кокс (Captain Sharp), Кен Дюкен (Hartenstein), Линдсэй Дункан (Elisabeth Fullwood), Томас Кречманн (Admiral Donitz), Франка Потенте (Hilda), Морвен Кристи (Laura Ferguson), Джоди Бальфур (Sarah Fullwood), Николас Барнс (Captain Coutts), Киаран МакМенамин (Declan McDermott), Ленни Вуд (Billy Hardacre), Бен Кромптон (Harry Townes)--

12 сентября 1942 года в южноатлантических водах произошла масштабнейшая катастрофа, сопоставимая с крушением легендарного «Титаника».
Немецкая подводная лодка U-156 торпедировала британский круизный лайнер «Лакония». К своему удивлению, немцы обнаружили на борту стремительно уходящей под воду «Лаконии» более тысячи итальянских военнопленных солдат-союзников. Всего на пассажирском лайнере находилось 2789 человек — итальянцев, немцев, англичан, в том числе женщин и детей.
Капитан U-156 Вернер Хартенштайн отдает невероятный в условиях войны приказ: подняться на поверхность и попытаться спасти хотя бы часть пассажиров…
-- .............................. .............................. --Меню: Есть, анимированное, озвученное, на русском языке.
Тип релиза: Blu-ray disc 1080p
Контейнер: BDMV
Video: MPEG-4 AVC Video / 24735 kbps / 1080p / 24 fps / 16:9 / High Profile 4.1
Audio: English / DTS-HD Master Audio / 5.1 / 48 kHz / 2354 kbps / 16-bit (DTS Core: 5.1 / 48 kHz / 1509 kbps / 16-bit)
Audio: Russian / DTS-HD Master Audio / 5.1 / 48 kHz / 2327 kbps / 16-bit (DTS Core: 5.1 / 48 kHz / 1509 kbps / 16-bit)
Audio: English / Dolby Digital Audio / 5.1 / 48 kHz / 448 kbps
Audio: Russian / Dolby Digital Audio / 5.1 / 48 kHz / 448 kbps
Subtitle: Russian / 30,511 kbps
Релиз от:

Скриншоты

       
       

BDinfo

Disc Title: SINKING_OF_THE_LACONIA_HDCLUB
Disc Size: 45 725 188 340 bytes
Protection: AACS
BD-Java: No
BDInfo: 0.5.2
Notes:
BDINFO HOME AND REPORTS SUBMISSION:
Cinema Squid
http://www.cinemasquid.com/Tools.aspx
INCLUDES FORUMS REPORT FOR:
Unofficial Blu-ray Audio and Video Specifications Thread
http://www.avsforum.com/avs-vb/showthread.php?t=760714
http://forum.blu-ray.com/showthread.php?t=3338
********************
PLAYLIST: 00003.MPLS
********************
Код:
Total   Video
Title                                                           Codec   Length  Movie Size      Disc Size       Bitrate Bitrate Main Audio Track                          Secondary Audio Track
-----                                                           ------  ------- --------------  --------------  ------- ------- ------------------                        ---------------------
00003.MPLS                                                      AVC     2:58:02 43 052 869 632  45 725 188 340  32,24   24,74   DTS-HD Master 5.1 2354Kbps (48kHz/16-bit) DD AC3 5.1 448Kbps
Код:
DISC INFO:
Disc Title:     SINKING_OF_THE_LACONIA_HDCLUB
Disc Size:      45 725 188 340 bytes
Protection:     AACS
BD-Java:        No
BDInfo:         0.5.2
PLAYLIST REPORT:
Name:                   00003.MPLS
Size:                   43 052 869 632 bytes
Length:                 2:58:02 (h:m:s)
Total Bitrate:          32,24 Mbps
Description:
VIDEO:
Codec                   Bitrate             Description
-----                   -------             -----------
MPEG-4 AVC Video        24735 kbps          1080p / 24 fps / 16:9 / High Profile 4.1
AUDIO:
Codec                           Language        Bitrate         Description
-----                           --------        -------         -----------
DTS-HD Master Audio             English         2354 kbps       5.1 / 48 kHz / 2354 kbps / 16-bit (DTS Core: 5.1 / 48 kHz / 1509 kbps / 16-bit)
DTS-HD Master Audio             Russian         2327 kbps       5.1 / 48 kHz / 2327 kbps / 16-bit (DTS Core: 5.1 / 48 kHz / 1509 kbps / 16-bit)
Dolby Digital Audio             English         448 kbps        5.1 / 48 kHz / 448 kbps
Dolby Digital Audio             Russian         448 kbps        5.1 / 48 kHz / 448 kbps
SUBTITLES:
Codec                           Language        Bitrate         Description
-----                           --------        -------         -----------
Presentation Graphics           Russian         30,511 kbps
FILES:
Name            Time In         Length          Size            Total Bitrate
----            -------         ------          ----            -------------
00005.M2TS      0:00:00.000     1:29:19.416     21 785 708 544  32 520
00006.M2TS      1:29:19.416     1:28:42.958     21 267 161 088  31 963
CHAPTERS:
Number          Time In         Length          Avg Video Rate  Max 1-Sec Rate  Max 1-Sec Time  Max 5-Sec Rate  Max 5-Sec Time  Max 10Sec Rate  Max 10Sec Time  Avg Frame Size  Max Frame Size  Max Frame Time
------          -------         ------          --------------  --------------  --------------  --------------  --------------  --------------  --------------  --------------  --------------  --------------
1               0:00:00.000     0:09:34.708     23 894 kbps     39 449 kbps     00:01:45.208    34 991 kbps     00:01:43.208    32 157 kbps     00:01:43.208    124 440 bytes   385 969 bytes   00:01:45.250
2               0:09:34.708     0:08:56.875     25 650 kbps     34 353 kbps     00:14:09.083    31 435 kbps     00:10:31.041    31 108 kbps     00:10:26.166    133 592 bytes   398 391 bytes   00:10:29.916
3               0:18:31.583     0:07:39.541     24 435 kbps     37 484 kbps     00:19:55.916    30 832 kbps     00:19:46.625    30 073 kbps     00:19:47.875    127 263 bytes   339 727 bytes   00:22:05.708
4               0:26:11.125     0:07:51.458     25 885 kbps     39 580 kbps     00:32:16.374    35 530 kbps     00:32:14.375    31 653 kbps     00:32:14.374    134 817 bytes   372 809 bytes   00:33:17.833
5               0:34:02.583     0:07:18.458     25 189 kbps     36 965 kbps     00:37:37.416    29 346 kbps     00:38:08.125    28 836 kbps     00:38:04.250    131 195 bytes   400 256 bytes   00:35:10.541
6               0:41:21.041     0:07:59.208     23 399 kbps     36 188 kbps     00:47:02.291    30 343 kbps     00:46:40.708    28 967 kbps     00:46:53.416    121 869 bytes   399 799 bytes   00:47:53.666
7               0:49:20.250     0:07:18.375     25 661 kbps     41 886 kbps     00:49:43.291    32 879 kbps     00:49:40.666    30 694 kbps     00:54:40.833    133 653 bytes   442 776 bytes   00:51:30.541
8               0:56:38.625     0:08:04.166     26 133 kbps     35 996 kbps     00:57:35.708    32 247 kbps     01:04:13.250    29 813 kbps     01:04:08.250    136 107 bytes   434 240 bytes   00:57:37.708
9               1:04:42.791     0:09:14.375     25 937 kbps     37 805 kbps     01:08:37.250    33 677 kbps     01:06:36.541    31 151 kbps     01:06:36.583    135 087 bytes   367 268 bytes   01:07:40.750
10              1:13:57.166     0:07:42.791     26 087 kbps     37 991 kbps     01:16:23.833    34 611 kbps     01:16:23.791    32 395 kbps     01:16:18.250    135 871 bytes   383 148 bytes   01:17:06.166
11              1:21:39.958     0:07:00.625     24 236 kbps     36 173 kbps     01:28:29.833    31 472 kbps     01:26:42.208    31 516 kbps     01:26:37.375    126 231 bytes   426 497 bytes   01:26:49.416
12              1:28:40.583     0:00:38.833     6 286 kbps      11 198 kbps     01:28:46.541    10 312 kbps     01:28:46.000    10 117 kbps     01:28:45.541    32 741 bytes    305 568 bytes   01:29:19.416
13              1:29:19.416     0:09:10.208     22 796 kbps     49 637 kbps     01:30:48.083    34 055 kbps     01:30:45.666    30 081 kbps     01:32:54.500    118 728 bytes   445 739 bytes   01:30:48.125
14              1:38:29.625     0:09:38.708     24 086 kbps     36 501 kbps     01:46:37.458    33 943 kbps     01:46:35.500    31 679 kbps     01:46:35.583    125 448 bytes   462 291 bytes   01:46:45.291
15              1:48:08.333     0:08:38.000     25 100 kbps     39 720 kbps     01:55:08.458    30 756 kbps     01:55:07.666    27 990 kbps     01:55:07.666    130 728 bytes   363 726 bytes   01:49:47.291
16              1:56:46.333     0:09:38.333     23 111 kbps     40 434 kbps     02:01:41.750    33 163 kbps     01:59:39.750    29 959 kbps     01:59:39.333    120 369 bytes   501 688 bytes   02:06:16.750
17              2:06:24.666     0:08:45.583     25 136 kbps     38 179 kbps     02:06:25.625    34 606 kbps     02:06:24.666    30 614 kbps     02:06:24.666    130 916 bytes   416 412 bytes   02:06:25.666
18              2:15:10.250     0:08:09.541     24 789 kbps     30 646 kbps     02:17:29.166    29 223 kbps     02:17:29.166    28 688 kbps     02:17:28.166    129 108 bytes   342 000 bytes   02:16:04.875
19              2:23:19.791     0:07:56.166     25 580 kbps     31 226 kbps     02:29:20.000    29 574 kbps     02:29:20.000    28 310 kbps     02:29:12.875    133 230 bytes   366 610 bytes   02:27:09.666
20              2:31:15.958     0:07:11.500     25 273 kbps     30 732 kbps     02:36:37.666    29 047 kbps     02:37:30.791    27 897 kbps     02:37:28.041    131 628 bytes   336 810 bytes   02:35:14.416
21              2:38:27.458     0:06:42.208     25 518 kbps     32 864 kbps     02:45:07.625    29 518 kbps     02:41:18.708    28 586 kbps     02:39:20.750    132 905 bytes   361 334 bytes   02:42:10.208
22              2:45:09.666     0:06:25.916     25 121 kbps     31 515 kbps     02:50:52.250    29 589 kbps     02:45:17.875    29 228 kbps     02:45:16.875    130 838 bytes   371 170 bytes   02:46:40.000
23              2:51:35.583     0:05:38.708     25 630 kbps     31 429 kbps     02:56:49.291    29 469 kbps     02:52:51.791    29 224 kbps     02:52:51.541    133 489 bytes   349 304 bytes   02:56:49.333
24              2:57:14.291     0:00:48.083     6 812 kbps      15 455 kbps     02:57:32.250    14 390 kbps     02:57:31.916    14 134 kbps     02:57:30.250    35 510 bytes    161 473 bytes   02:57:33.291
STREAM DIAGNOSTICS:
File            PID             Type            Codec           Language                Seconds                 Bitrate                 Bytes           Packets
----            ---             ----            -----           --------                --------------          --------------          -------------   -----
00005.M2TS      4113 (0x1011)   0x1B            AVC                                     5359,333                25 000                  16 747 758 384  91 095 587
00005.M2TS      4352 (0x1100)   0x86            DTS-HD MA       rus (Russian)           5359,333                2 329                   1 559 902 516   9 315 816
00005.M2TS      4353 (0x1101)   0x86            DTS-HD MA       eng (English)           5359,333                2 357                   1 578 672 136   9 417 971
00005.M2TS      4354 (0x1102)   0x81            AC3             rus (Russian)           5359,333                448                     300 131 328     1 674 840
00005.M2TS      4355 (0x1103)   0x81            AC3             eng (English)           5359,333                448                     300 129 536     1 674 830
00005.M2TS      4608 (0x1200)   0x90            PGS             rus (Russian)           5359,333                28                      18 836 501      108 605
00006.M2TS      4113 (0x1011)   0x1B            AVC                                     5322,875                24 470                  16 281 168 642  88 559 204
00006.M2TS      4352 (0x1100)   0x86            DTS-HD MA       rus (Russian)           5322,875                2 326                   1 547 302 832   9 236 482
00006.M2TS      4353 (0x1101)   0x86            DTS-HD MA       eng (English)           5322,875                2 352                   1 564 673 804   9 339 434
00006.M2TS      4354 (0x1102)   0x81            AC3             rus (Russian)           5322,875                448                     298 088 448     1 663 440
00006.M2TS      4355 (0x1103)   0x81            AC3             eng (English)           5322,875                448                     298 086 656     1 663 430
00006.M2TS      4608 (0x1200)   0x90            PGS             rus (Russian)           5322,875                33                      21 905 113      126 125
QUICK SUMMARY:
Disc Title: SINKING_OF_THE_LACONIA_HDCLUB
Disc Size: 45 725 188 340 bytes
Protection: AACS
BD-Java: No
Playlist: 00003.MPLS
Size: 43 052 869 632 bytes
Length: 2:58:02
Total Bitrate: 32,24 Mbps
Video: MPEG-4 AVC Video / 24735 kbps / 1080p / 24 fps / 16:9 / High Profile 4.1
Audio: English / DTS-HD Master Audio / 5.1 / 48 kHz / 2354 kbps / 16-bit (DTS Core: 5.1 / 48 kHz / 1509 kbps / 16-bit)
Audio: Russian / DTS-HD Master Audio / 5.1 / 48 kHz / 2327 kbps / 16-bit (DTS Core: 5.1 / 48 kHz / 1509 kbps / 16-bit)
Audio: English / Dolby Digital Audio / 5.1 / 48 kHz / 448 kbps
Audio: Russian / Dolby Digital Audio / 5.1 / 48 kHz / 448 kbps
Subtitle: Russian / 30,511 kbps
********************
PLAYLIST: 00004.MPLS
********************
Код:
Total   Video
Title                                                           Codec   Length  Movie Size      Disc Size       Bitrate Bitrate Main Audio Track                          Secondary Audio Track
-----                                                           ------  ------- --------------  --------------  ------- ------- ------------------                        ---------------------
00004.MPLS                                                      MPEG-2  0:29:07 2 388 455 424   45 725 188 340  10,93   5,95    LPCM 2.0 1536Kbps (48kHz/16-bit)          LPCM 2.0 1536Kbps (48kHz/16-bit)
Код:
DISC INFO:
Disc Title:     SINKING_OF_THE_LACONIA_HDCLUB
Disc Size:      45 725 188 340 bytes
Protection:     AACS
BD-Java:        No
BDInfo:         0.5.2
PLAYLIST REPORT:
Name:                   00004.MPLS
Size:                   2 388 455 424 bytes
Length:                 0:29:07 (h:m:s)
Total Bitrate:          10,93 Mbps
Description:
VIDEO:
Codec                   Bitrate             Description
-----                   -------             -----------
MPEG-2 Video            5954 kbps           576i / 25 fps / 16:9
AUDIO:
Codec                           Language        Bitrate         Description
-----                           --------        -------         -----------
LPCM Audio                      Russian         1536 kbps       2.0 / 48 kHz / 1536 kbps / 16-bit
LPCM Audio                      Russian         1536 kbps       2.0 / 48 kHz / 1536 kbps / 16-bit
Dolby Digital Audio             English         448 kbps        2.0 / 48 kHz / 448 kbps
Dolby Digital Audio             English         448 kbps        2.0 / 48 kHz / 448 kbps
SUBTITLES:
Codec                           Language        Bitrate         Description
-----                           --------        -------         -----------
Presentation Graphics           Russian         0,020 kbps
FILES:
Name            Time In         Length          Size            Total Bitrate
----            -------         ------          ----            -------------
00007.M2TS      0:00:00.000     0:29:07.640     2 388 455 424   10 933
CHAPTERS:
Number          Time In         Length          Avg Video Rate  Max 1-Sec Rate  Max 1-Sec Time  Max 5-Sec Rate  Max 5-Sec Time  Max 10Sec Rate  Max 10Sec Time  Avg Frame Size  Max Frame Size  Max Frame Time
------          -------         ------          --------------  --------------  --------------  --------------  --------------  --------------  --------------  --------------  --------------  --------------
1               0:00:00.000     0:05:00.000     6 022 kbps      10 166 kbps     00:04:39.720    8 430 kbps      00:04:39.600    7 695 kbps      00:00:02.879    30 104 bytes    123 416 bytes   00:01:02.799
2               0:05:00.000     0:05:00.000     5 970 kbps      10 697 kbps     00:05:29.640    8 959 kbps      00:06:01.679    8 145 kbps      00:06:01.200    29 848 bytes    133 427 bytes   00:06:01.840
3               0:10:00.000     0:05:00.000     5 960 kbps      8 831 kbps      00:10:33.960    7 624 kbps      00:10:32.480    7 078 kbps      00:10:27.559    29 800 bytes    133 389 bytes   00:11:28.240
4               0:15:00.000     0:05:00.000     6 076 kbps      10 901 kbps     00:19:52.200    9 452 kbps      00:19:52.080    8 030 kbps      00:15:27.240    30 378 bytes    150 922 bytes   00:19:56.080
5               0:20:00.000     0:05:00.000     5 944 kbps      10 689 kbps     00:20:36.359    9 487 kbps      00:20:36.359    8 499 kbps      00:20:33.480    29 718 bytes    126 975 bytes   00:23:10.960
6               0:25:00.000     0:04:07.639     5 713 kbps      10 227 kbps     00:28:59.400    9 375 kbps      00:28:56.840    9 208 kbps      00:28:56.520    28 568 bytes    129 597 bytes   00:26:45.520
STREAM DIAGNOSTICS:
File            PID             Type            Codec           Language                Seconds                 Bitrate                 Bytes           Packets
----            ---             ----            -----           --------                --------------          --------------          -------------   -----
00007.M2TS      4113 (0x1011)   0x02            MPEG-2                                  1747,560                5 954                   1 300 725 286   7 094 652
00007.M2TS      4352 (0x1100)   0x80            LPCM            rus (Russian)           1747,560                1 542                   336 944 992     2 097 168
00007.M2TS      4353 (0x1101)   0x81            AC3             eng (English)           1747,560                448                     97 868 288      546 140
00007.M2TS      4354 (0x1102)   0x80            LPCM            rus (Russian)           1747,560                1 542                   336 944 992     2 097 168
00007.M2TS      4355 (0x1103)   0x81            AC3             eng (English)           1747,560                448                     97 868 288      546 140
00007.M2TS      4608 (0x1200)   0x90            PGS             rus (Russian)           1747,560                0                       4 393           31
QUICK SUMMARY:
Disc Title: SINKING_OF_THE_LACONIA_HDCLUB
Disc Size: 45 725 188 340 bytes
Protection: AACS
BD-Java: No
Playlist: 00004.MPLS
Size: 2 388 455 424 bytes
Length: 0:29:07
Total Bitrate: 10,93 Mbps
Video: MPEG-2 Video / 5954 kbps / 576i / 25 fps / 16:9
Audio: Russian / LPCM Audio / 2.0 / 48 kHz / 1536 kbps / 16-bit
Audio: Russian / LPCM Audio / 2.0 / 48 kHz / 1536 kbps / 16-bit
Audio: English / Dolby Digital Audio / 2.0 / 48 kHz / 448 kbps
Audio: English / Dolby Digital Audio / 2.0 / 48 kHz / 448 kbps
Subtitle: Russian / 0,020 kbps
********************
PLAYLIST: 00000.MPLS
********************
Код:
Total   Video
Title                                                           Codec   Length  Movie Size      Disc Size       Bitrate Bitrate Main Audio Track                          Secondary Audio Track
-----                                                           ------  ------- --------------  --------------  ------- ------- ------------------                        ---------------------
00000.MPLS                                                      AVC     0:00:22 35 395 584      45 725 188 340  12,86   11,29   LPCM 2.0 1536Kbps (48kHz/16-bit)
Код:
DISC INFO:
Disc Title:     SINKING_OF_THE_LACONIA_HDCLUB
Disc Size:      45 725 188 340 bytes
Protection:     AACS
BD-Java:        No
BDInfo:         0.5.2
PLAYLIST REPORT:
Name:                   00000.MPLS
Size:                   35 395 584 bytes
Length:                 0:00:22 (h:m:s)
Total Bitrate:          12,86 Mbps
Description:
VIDEO:
Codec                   Bitrate             Description
-----                   -------             -----------
MPEG-4 AVC Video        11287 kbps          1080p / 23,976 fps / 16:9 / High Profile 4.1
AUDIO:
Codec                           Language        Bitrate         Description
-----                           --------        -------         -----------
LPCM Audio                      Russian         1536 kbps       2.0 / 48 kHz / 1536 kbps / 16-bit
FILES:
Name            Time In         Length          Size            Total Bitrate
----            -------         ------          ----            -------------
00000.M2TS      0:00:00.000     0:00:10.009     1 726 464       1 380
00001.M2TS      0:00:10.009     0:00:12.011     33 669 120      22 424
CHAPTERS:
Number          Time In         Length          Avg Video Rate  Max 1-Sec Rate  Max 1-Sec Time  Max 5-Sec Rate  Max 5-Sec Time  Max 10Sec Rate  Max 10Sec Time  Avg Frame Size  Max Frame Size  Max Frame Time
------          -------         ------          --------------  --------------  --------------  --------------  --------------  --------------  --------------  --------------  --------------  --------------
1               0:00:00.000     0:00:22.021     11 287 kbps     25 905 kbps     00:00:15.765    21 638 kbps     00:00:12.595    20 338 kbps     00:00:10.427    58 844 bytes    392 533 bytes   00:00:16.015
STREAM DIAGNOSTICS:
File            PID             Type            Codec           Language                Seconds                 Bitrate                 Bytes           Packets
----            ---             ----            -----           --------                --------------          --------------          -------------   -----
00000.M2TS      4113 (0x1011)   0x1B            AVC                                     9,885                   1 264                   1 562 393       8 627
00001.M2TS      4113 (0x1011)   0x1B            AVC                                     11,845                  19 929                  29 507 466      160 528
00001.M2TS      4352 (0x1100)   0x80            LPCM            rus (Russian)           11,845                  1 563                   2 313 600       14 400
QUICK SUMMARY:
Disc Title: SINKING_OF_THE_LACONIA_HDCLUB
Disc Size: 45 725 188 340 bytes
Protection: AACS
BD-Java: No
Playlist: 00000.MPLS
Size: 35 395 584 bytes
Length: 0:00:22
Total Bitrate: 12,86 Mbps
Video: MPEG-4 AVC Video / 11287 kbps / 1080p / 23,976 fps / 16:9 / High Profile 4.1
Audio: Russian / LPCM Audio / 2.0 / 48 kHz / 1536 kbps / 16-bit

_________________

Создавая "Новую папку", не считайте себя Создателем - это право Вам дано Админом




Last edited by Varius on 2011-09-27 07:36; edited 1 time in total
Other forum [Profile] [PM]
Display posts from previous:    
Reply to topic

The time now is: Today 11:43

All times are GMT + 3 Hours



You cannot post new topics in this forum
You cannot reply to topics in this forum
You cannot edit your posts in this forum
You cannot delete your posts in this forum
You cannot vote in polls in this forum
You cannot attach files in this forum
You cannot download files in this forum