Today is a free download without charge Download

Монте-Карло / Monte Carlo (Томас Безуча / Thomas Bezucha) [2011, США, Венгрия, BDRip 720p] DUB + Original Eng + Sub rus eng

Reply to topic
 
Author
Message

Varius ®

Gender:

Longevity: 9 years 7 months

Posts: 2416

Location: Hell

Торрент-статистика

Post 27-Sep-2011 05:03

[Quote]

Монте-Карло / Monte Carlo --Страна: США, Венгрия
Студия: Fox 2000 Pictures, Blossom Films, Mid Atlantic Films
Жанр: мелодрама, комедия, приключения
Год выпуска: 2011
Продолжительность: 01:46:48--Перевод: дублированный [лицензия]
Cубтитры: русские, английские
Оригинальная аудиодорожка: английский--Режиссер: Томас Безуча / Thomas Bezucha
В ролях: Селена Гомес, Кэти Кэссиди, Лейтон Мистер, Кори Монтейт, Энди МакДауэлл, Бретт Каллен, Аманда Фейрбэнк-Хайнс, Джо Кэмп III, Люк Брейси, Валери Лемерсье--Описание: Под занавес своего долгожданного, но неудавшегося путешествия в Париж три девушки от скуки заходят в пятизвездочный отель, и их жизнь совершает головокружительный поворот: одну из них принимают за избалованную англичанку, наследницу огромного состояния. И вот тыква превращается в карету, скромное платьице — в шикарный наряд, Золушка — в принцессу, а Париж — в Монте-Карло с вездесущими папарацци, частными самолетами, и незабываемой романтикой.-- | imdb | kinopoisk | Семпл--Тип релиза: BDRip 720p [Monte.Carlo.2011.BluRay.720p.DTS.x264-CHD]
Контейнер: MKV
Видео: 5657 kb/s, 1280x694, 23.976 fps, V_MPEG4/ISO/AVC
Аудио: DTS, 755 kb/s, 5.1, 48 kHz, 24 bits [dub]
Аудио 2: DTS, 1510 kb/s, 5.1, 48 kHz, 24 bits [eng]
Формат субтитров: softsub [SRT]

MediaInfo

General
Complete name : H:\Monte.Carlo.2011.D.BDRip.720p.mkv
Format : Matroska
File size : 6.02 GiB
Duration : 1h 48mn
Overall bit rate : 7 920 Kbps
Encoded date : UTC 2011-09-26 17:59:19
Writing application : mkvmerge v3.4.0 ('Rapunzel') сборка от May 15 2010 09:38:20
Writing library : libebml v0.8.0 + libmatroska v0.9.0
Video
ID : 1
Format : AVC
Format/Info : Advanced Video Codec
Format profile : [email protected]
Format settings, CABAC : Yes
Format settings, ReFrames : 9 frames
Format settings, GOP : M=1, N=32
Codec ID : V_MPEG4/ISO/AVC
Duration : 1h 48mn
Bit rate : 5 657 Kbps
Width : 1 280 pixels
Height : 694 pixels
Display aspect ratio : 16:9
Frame rate : 23.976 fps
Color space : YUV
Chroma subsampling : 4:2:0
Bit depth : 8 bits
Scan type : Progressive
Bits/(Pixel*Frame) : 0.266
Stream size : 4.18 GiB (69%)
Title : Monte.Carlo.2011.BluRay.720p.DTS.x264-CHD
Writing library : x264 core 102 r1666 d058f37
Encoding settings : cabac=1 / ref=9 / deblock=1:-3:-3 / analyse=0x3:0x113 / me=umh / subme=10 / psy=1 / psy_rd=1.05:0.10 / mixed_ref=1 / me_range=32 / chroma_me=1 / trellis=2 / 8x8dct=1 / cqm=2 / deadzone=21,11 / fast_pskip=0 / chroma_qp_offset=-2 / threads=6 / sliced_threads=0 / nr=0 / decimate=1 / interlaced=0 / constrained_intra=0 / bframes=6 / b_pyramid=2 / b_adapt=2 / b_bias=0 / direct=3 / weightb=1 / open_gop=0 / weightp=2 / keyint=250 / keyint_min=25 / scenecut=40 / intra_refresh=0 / rc_lookahead=40 / rc=2pass / mbtree=1 / bitrate=5657 / ratetol=1.0 / qcomp=0.60 / qpmin=10 / qpmax=51 / qpstep=4 / cplxblur=20.0 / qblur=0.5 / vbv_maxrate=50000 / vbv_bufsize=50000 / ip_ratio=1.40 / aq=1:0.80 / nal_hrd=none
Language : English
Audio #1
ID : 2
Format : DTS
Format/Info : Digital Theater Systems
Codec ID : A_DTS
Duration : 1h 48mn
Bit rate mode : Constant
Bit rate : 755 Kbps
Channel(s) : 6 channels
Channel positions : Front: L C R, Side: L R, LFE
Sampling rate : 48.0 KHz
Bit depth : 24 bits
Stream size : 587 MiB (10%)
Title : DUB R5
Language : Russian
Audio #2
ID : 3
Format : DTS
Format/Info : Digital Theater Systems
Codec ID : A_DTS
Duration : 1h 48mn
Bit rate mode : Constant
Bit rate : 1 510 Kbps
Channel(s) : 6 channels
Channel positions : Front: L C R, Side: L R, LFE
Sampling rate : 48.0 KHz
Bit depth : 24 bits
Stream size : 1.15 GiB (19%)
Title : Original
Language : English
Text #1
ID : 4
Format : UTF-8
Codec ID : S_TEXT/UTF8
Codec ID/Info : UTF-8 Plain Text
Title : R5
Language : Russian
Text #2
ID : 5
Format : UTF-8
Codec ID : S_TEXT/UTF8
Codec ID/Info : UTF-8 Plain Text
Title : English
Language : English

Скриншоты

           

_________________

Создавая "Новую папку", не считайте себя Создателем - это право Вам дано Админом


Other forum [Profile] [PM]
Display posts from previous:    
Reply to topic

The time now is: Today 19:55

All times are GMT + 3 Hours



You cannot post new topics in this forum
You cannot reply to topics in this forum
You cannot edit your posts in this forum
You cannot delete your posts in this forum
You cannot vote in polls in this forum
You cannot attach files in this forum
You cannot download files in this forum