Today is a free download without charge Download

Дарю тебе звезду (Фёдор Хитрук) [1974 г., Мультфильм для взрослых, короткометражка, SATRip]

Reply to topic
 
Author
Message

Omen ®

Longevity: 7 years 11 months

Posts: 181087

Торрент-статистика

Post 16-Sep-2013 22:07

[Quote]

Дарю тебе звездуСтрана: СССР
Жанр: мультфильм для взрослых, короткометражка
Продолжительность: 00:07:58
Год выпуска: 1974
Выпущено: «Союзмультфильм»
Режиссёр: Фёдор Хитрук
Русские субтитры: нетОписание:Для взрослых.
Комедия, где в шутливой форме затрагивается проблема о положении женщины в семье. Фильм состоит из четырёх новелл, объединённых одними и теми же героями — Мужчиной и Женщиной в различные эпохи.Награды• 1975 г. — XXVIII МКФ в Каннах, Специальная премия Жюри конкурса короткометражных фильмов;
• 1976 г. — Государственная премия СССР режиссёру Ф. Хитруку (вместе с фильмами о Винни-Пухе).
Цитата:
"Любимая, я подарю тебе эту звезду! Светом нетленным будет она озарять нам путь в бесконечность!.."

Режиссёр и команда

Режиссёр Фёдор Хитрук
сценаристы: Федор Хитрук, Мария Мотрук
художники-постановщики: Владимир Зуйков, Эдуард Назаров
аниматоры: Эльвира Авакян, Владимир Пальчиков, Иван Давыдов, Виолетта Колесникова, Татьяна Померанцева, Наталия Богомолова, Лев Рябинин, Мария Мотрук, Галина Зеброва
композитор: Шандор Каллош
оператор: Михаил Друян
звукооператор: Георгий Мартынюк
редактор: Аркадий Снесарев
монтажёр: И. Герасимова
Текст читает и вокальные партии исполняет: Валентин Никулин
Качество: SATRip
Формат: AVI
Видео: 720x544 (1.32:1), 25 fps, XviD build 64 ~2384 kbps avg, 0.24 bit/pixel
Аудио: 48 kHz, AC3 Dolby Digital, 2/0 (L,R) ch, ~192 kbps
Субтитры: отсутствуют

Подробные технические данные

ОбщееПолное имя : D:\Мульты\Dar'u tebe zvezdu (SATRip).aviФормат : AVIФормат/Информация : Audio Video InterleaveРазмер файла : 147 МбайтПродолжительность : 7 м. 58 с.Общий поток : 2587 Кбит/секПрограмма кодирования : VirtualDubMod 1.5.10.2 (build 2540/release)Библиотека кодирования : VirtualDubMod build 2540/release
ВидеоИдентификатор : 0Формат : MPEG-4 VisualПрофиль формата : Advanced [email protected]Параметр BVOP формата : 2Параметр QPel формата : НетПараметр GMC формата : Без точки переходаПараметр матрицы формата : ВыборочнаяИдентификатор кодека : XVIDИдентификатор кодека/Подсказка : XviDПродолжительность : 7 м. 58 с.Битрейт : 2385 Кбит/секШирина : 720 пикселейВысота : 544 пикселяСоотношение сторон : 4:3Частота кадров : 25,000 кадров/секЦветовое пространство : YUVСубдискретизация насыщенности : 4:2:0Битовая глубина : 8 битТип развёртки : ПрогрессивнаяМетод сжатия : С потерямиБит/(Пиксели*Кадры) : 0.244Размер потока : 136 Мбайт (92%)Библиотека кодирования : XviD 64
АудиоИдентификатор : 1Формат : AC-3Формат/Информация : Audio Coding 3Расширение режима : CM (complete main)Идентификатор кодека : 2000Продолжительность : 7 м. 58 с.Вид битрейта : ПостоянныйБитрейт : 192 Кбит/секКаналы : 2 каналаРасположение каналов : Front: L RЧастота : 48,0 КГцБитовая глубина : 16 битМетод сжатия : С потерямиРазмер потока : 10,9 Мбайт (7%)Выравнивание : Разделение по промежуткамПродолжительность промежутка : 40 мс. (1,00 видеокадр)Время предзагрузки промежутка : 500 мс.

Скриншоты

Other forum [Profile] [PM]
Display posts from previous:    
Reply to topic

The time now is: Today 21:29

All times are GMT + 3 Hours



You cannot post new topics in this forum
You cannot reply to topics in this forum
You cannot edit your posts in this forum
You cannot delete your posts in this forum
You cannot vote in polls in this forum
You cannot attach files in this forum
You cannot download files in this forum