Today is a free download without charge Download

В лесной чаще (Александр Иванов, Лев Позднеев) [1954 г., мультфильм, DVB-AVC]

Reply to topic
 
Author
Message

Omen ®

Longevity: 7 years 11 months

Posts: 181087

Торрент-статистика

Post 16-Sep-2013 22:07

[Quote]

В лесной чаще
Жанр: мультфильм
Год выпуска: 1954
Продолжительность: 00:18:57
Режиссёр: Александр Иванов, Лев Позднеев
Описание: мультфильм о маленьком барсучонке, который был большим лентяем и любил долго поспать. Родители его чересчур опекали, лелеяли и баловали. Однажды заигравшись, он заблудился в лесу... Приключения без мамы и папы, многое в нем изменили к лучшему ...
Доп. информация:

Релиз группы:
Качество видео: DVB
Формат видео: MPEG-TS
Видео: MPEG4 Video (H264), [email protected] (4:3), анаморф, 25 fps, 2800 kbps
Аудио: MPEG Audio, 2 сh, 48 kHz, 192 kbps
Трансляция спутникового канала:

MediaInfo

D:\В лесной чаще. (1954)_DVB by SLuMeP.ts
General #1
ID : 1 (0x1)
Complete name : D:\В лесной чаще. (1954)_DVB by SLuMeP.ts
Format : MPEG-TS
File size : 425 MiB
Duration : 18mn 57s
Overall bit rate : 3 135 Kbps
Video #2271
ID : 2271 (0x8DF)
Menu ID : 1 (0x1)
Format : AVC
Format/Info : Advanced Video Codec
Format profile : [email protected]
Format settings, CABAC : Yes
Format settings, ReFrames : 3 frames
Format settings, GOP : M=4, N=28
Codec ID : 27
Duration : 18mn 57s
Bit rate : 2 786 Kbps
Width : 720 pixels
Height : 576 pixels
Display aspect ratio : 4:3
Frame rate : 25.000 fps
Standard : Component
Color space : YUV
Chroma subsampling : 4:2:0
Bit depth : 8 bits
Scan type : Interlaced
Scan order : Top Field First
Bits/(Pixel*Frame) : 0.269
Stream size : 378 MiB (89%)
Color primaries : BT.470-6 System B, BT.470-6 System G, BT.601-6 625, BT.1358 625, BT.1700 625 PAL, BT.1700 625 SECAM
Transfer characteristics : BT.470-6 System B, BT.470-6 System G
Matrix coefficients : BT.470-6 System B, BT.470-6 System G, BT.601-6 625, BT.1358 625, BT.1700 625 PAL, BT.1700 625 SECAM, IEC 61966-2-4 601
Audio #2272
ID : 2272 (0x8E0)
Menu ID : 1 (0x1)
Format : MPEG Audio
Format version : Version 1
Format profile : Layer 2
Codec ID : 3
Duration : 18mn 57s
Bit rate mode : Constant
Bit rate : 192 Kbps
Channel(s) : 2 channels
Sampling rate : 48.0 KHz
Compression mode : Lossy
Delay relative to video : -40ms
Stream size : 26.0 MiB (6%)
Language : Russian

Скриншоты

Other forum [Profile] [PM]
Display posts from previous:    
Reply to topic

The time now is: Today 19:24

All times are GMT + 3 Hours



You cannot post new topics in this forum
You cannot reply to topics in this forum
You cannot edit your posts in this forum
You cannot delete your posts in this forum
You cannot vote in polls in this forum
You cannot attach files in this forum
You cannot download files in this forum