Today is a free download without charge Download

Portnoy Sheehan MacAlpine Sherinian - Live in Tokyo [2013, Progressive Rock, BDRip 1080p]

Reply to topic
 
Author
Message

Omen ®

Longevity: 8 years 4 months

Posts: 181087

Торрент-статистика

Post 16-Sep-2013 22:07

[Quote]

Portnoy ● Sheehan ● MacAlpine ● Sherinian
Live in Tokyo
- Жанр: Progressive Rock
Продолжительность: 1:34:38
Год выпуска: 2013


Mike Portnoy (Dream Theater, The Winery Dogs, Transatlantic) - Drums; Billy Sheehan (Talas, Mr. Big, David Lee Roth) - Bass; Tony MacAlpine - Guitars; Derek Sherinian (Black Country Communion, Dream Theater, Billy Idol) - Keyboards
Live In Tokyo was filmed/recorded on November 14, 2012 at Zepp Tokyo. This 95-minute concert is the first release of material from the PSMS supergroup, and it showcases a wide range of instrumental performances from each of the members' careers & collaborations. Wider fanbases of Dream Theater, Mr. Big and Black Country Communion will definitely stand up and take notice.

TRACKS:
01. A Change Of Seasons: I The Crimson Sunrise (DREAM THEATER song)
02. Acid Rain (LIQUID TENSION EXPERIMENT song)
03. The Stranger (TONY MACALPINE song)
04. Stratus (BILLY COBHAM song)
05. Atlantis, Part 1: Apocalypse 1470 B.C. (DEREK SHERINIAN song)
06. Tony MacAlpine Guitar Solo
07. Been Here Before (DEREK SHERINIAN song)
08. Birds of Prey (Billy's Boogie) / Billy Sheehan solo
09. The Farandole (TALAS song)
10. The Pump (JEFF BECK song)
11. Mike Portnoy Drum Intro
12. Nightmare Cinema (DEREK SHERINIAN song)
13. Hell's Kitchen (DREAM THEATER song)
14. Derek Sherinian Keyboard Solo
15. Lines In The Sand (DREAM THEATER song) (abridged)
16. Shy Boy (TALAS song) (Billy Sheehan on lead vocals)

Качество: BDRip 1080p
Контейнер: MKV
Видео кодек: H.264
Аудио кодек: DTS
Видео: AVC, 1920:1080, 8410 kbps, 29.970 fps
Аудио: DTS, 1509 kbps, 48 kHz, 6 ch

Отчёт MediaInfo / BDInfo

Уникальный идентификатор : 184922773824533543076092620777344344025 (0x8B1ED4AC154EA5FE8942EAC6507E1FD9)Полное имя : H:\CAPTURE\Portnoy.Sheehan.MacAlpine.Sherinian.Live.in.Tokyo.2012.1080p.MBluRay.x264-LOUNGE.mkvФормат : MatroskaВерсия формата : Version 4 / Version 2Размер файла : 6,56 ГбайтПродолжительность : 1 ч. 34 м.Общий поток : 9922 Кбит/секДата кодирования : UTC 2013-08-30 20:35:59Программа кодирования : mkvmerge v6.3.0 ('You can't stop me!') built on Jun 28 2013 20:09:41Библиотека кодирования : libebml v1.3.0 + libmatroska v1.4.0
ВидеоИдентификатор : 1Формат : AVCФормат/Информация : Advanced Video CodecПрофиль формата : [email protected]Параметр CABAC формата : ДаПараметр ReFrames формата : 4 кадраИдентификатор кодека : V_MPEG4/ISO/AVCПродолжительность : 1 ч. 34 м.Битрейт : 8410 Кбит/секШирина : 1920 пикселейВысота : 1080 пикселейСоотношение сторон : 16:9Режим частоты кадров : ПостоянныйЧастота кадров : 29,970 кадров/секЦветовое пространство : YUVСубдискретизация насыщенности : 4:2:0Битовая глубина : 8 битТип развёртки : ПрогрессивнаяБит/(Пиксели*Кадры) : 0.135Размер потока : 5,43 Гбайт (83%)Библиотека кодирования : x264 core 133 r2334 a3ac64bНастройки программы : cabac=1 / ref=4 / deblock=1:0:0 / analyse=0x3:0x133 / me=umh / subme=8 / psy=1 / psy_rd=1.00:0.00 / mixed_ref=1 / me_range=16 / chroma_me=1 / trellis=1 / 8x8dct=1 / cqm=0 / deadzone=21,11 / fast_pskip=0 / chroma_qp_offset=-2 / threads=12 / lookahead_threads=2 / sliced_threads=0 / nr=0 / decimate=1 / interlaced=0 / bluray_compat=0 / constrained_intra=0 / bframes=3 / b_pyramid=2 / b_adapt=1 / b_bias=0 / direct=1 / weightb=1 / open_gop=0 / weightp=2 / keyint=250 / keyint_min=25 / scenecut=40 / intra_refresh=0 / rc_lookahead=40 / rc=2pass / mbtree=1 / bitrate=8410 / ratetol=1.0 / qcomp=0.60 / qpmin=0 / qpmax=69 / qpstep=4 / cplxblur=20.0 / qblur=0.5 / ip_ratio=1.40 / aq=1:1.00Язык : EnglishDefault : ДаForced : Нет
АудиоИдентификатор : 2Формат : DTSФормат/Информация : Digital Theater SystemsРежим : 16Параметр Endianness формата : BigИдентификатор кодека : A_DTSПродолжительность : 1 ч. 34 м.Вид битрейта : ПостоянныйБитрейт : 1509 Кбит/секКаналы : 6 каналовРасположение каналов : Front: L C R, Side: L R, LFEЧастота : 48,0 КГцБитовая глубина : 24 битМетод сжатия : С потерямиРазмер потока : 1021 Мбайт (15%)Default : ДаForced : Нет
Меню00:00:00.000 : en:00:00:00.00000:04:08.482 : en:00:04:08.48200:12:50.970 : en:00:12:50.97000:17:01.087 : en:00:17:01.08700:26:11.336 : en:00:26:11.33600:34:02.774 : en:00:34:02.77400:39:04.943 : en:00:39:04.94300:43:18.029 : en:00:43:18.02900:51:40.097 : en:00:51:40.09700:56:10.133 : en:00:56:10.13301:00:11.541 : en:01:00:11.54101:01:04.661 : en:01:01:04.66101:06:41.030 : en:01:06:41.03001:11:02.258 : en:01:11:02.25801:17:28.210 : en:01:17:28.21001:25:59.588 : en:01:25:59.588

Скриншоты

Other forum [Profile] [PM]
Display posts from previous:    
Reply to topic

The time now is: Today 18:03

All times are GMT + 3 Hours



You cannot post new topics in this forum
You cannot reply to topics in this forum
You cannot edit your posts in this forum
You cannot delete your posts in this forum
You cannot vote in polls in this forum
You cannot attach files in this forum
You cannot download files in this forum