Today is a free download without charge Download

Король и дыня (Алексей Папшин) [1974 г., мультфильм, DVB-AVC]

Reply to topic
 
Author
Message

Omen ®

Longevity: 7 years 11 months

Posts: 181087

Торрент-статистика

Post 16-Sep-2013 09:50

[Quote]

Король и дыня
Жанр: мультфильм
Год выпуска: 1974
Продолжительность: 00:13:34
Режиссёр: Алексей Папшин
Описание: мультфильм для самых маленьких о том, как король - обжора решил включить в свой обеденный рацион дыню ...
Доп. информация:

Релиз группы:
Качество видео: DVB
Формат видео: MPEG-TS
Видео: MPEG4 Video (H264), [email protected] (4:3), анаморф, 25 fps, 3500 kbps
Аудио: MPEG Audio, 2 сh, 48 kHz, 192 kbps
Трансляция спутникового канала:

MediaInfo

D:\Король и дыня. (1974)_DVB by SLuMeP.ts
General #1
ID : 1 (0x1)
Complete name : D:\Король и дыня. (1974)_DVB by SLuMeP.ts
Format : MPEG-TS
File size : 376 MiB
Duration : 13mn 34s
Overall bit rate : 3 873 Kbps
Video #2271
ID : 2271 (0x8DF)
Menu ID : 1 (0x1)
Format : AVC
Format/Info : Advanced Video Codec
Format profile : [email protected]
Format settings, CABAC : Yes
Format settings, ReFrames : 3 frames
Codec ID : 27
Duration : 13mn 34s
Bit rate : 3 488 Kbps
Width : 720 pixels
Height : 576 pixels
Display aspect ratio : 4:3
Frame rate : 25.000 fps
Standard : Component
Color space : YUV
Chroma subsampling : 4:2:0
Bit depth : 8 bits
Scan type : Interlaced
Scan order : Top Field First
Bits/(Pixel*Frame) : 0.336
Stream size : 339 MiB (90%)
Color primaries : BT.470-6 System B, BT.470-6 System G, BT.601-6 625, BT.1358 625, BT.1700 625 PAL, BT.1700 625 SECAM
Transfer characteristics : BT.470-6 System B, BT.470-6 System G
Matrix coefficients : BT.470-6 System B, BT.470-6 System G, BT.601-6 625, BT.1358 625, BT.1700 625 PAL, BT.1700 625 SECAM, IEC 61966-2-4 601
Audio #2272
ID : 2272 (0x8E0)
Menu ID : 1 (0x1)
Format : MPEG Audio
Format version : Version 1
Format profile : Layer 2
Codec ID : 3
Duration : 13mn 34s
Bit rate mode : Constant
Bit rate : 192 Kbps
Channel(s) : 2 channels
Sampling rate : 48.0 KHz
Compression mode : Lossy
Delay relative to video : -40ms
Stream size : 18.6 MiB (5%)
Language : Russian

Скриншоты

Other forum [Profile] [PM]
Similar theme
Forum Topic Author Torrent Replies Last Post
./templates/default/images/folder_dl.gif Rock Король и Шут / Документальный фильм о Михаиле Горшенёве - "Король Шутов" (Михаил Мирого) [2014, Документальный, WEB-DLRip 720p] Omen
1 | 0

0 | 682

4

2014-07-18 14:46
Omen Latest
./templates/default/images/folder_dl.gif Комиксы, Графика, Wallpapers, Арт Королькова А. - Живая типографика [2007, PDF, RUS] Omen
1 | 0

0 | 843

0

2016-08-16 01:01
Omen Latest
Display posts from previous:    
Reply to topic

The time now is: Today 05:58

All times are GMT + 3 Hours



You cannot post new topics in this forum
You cannot reply to topics in this forum
You cannot edit your posts in this forum
You cannot delete your posts in this forum
You cannot vote in polls in this forum
You cannot attach files in this forum
You cannot download files in this forum