Today is a free download without charge Download

Би-2. Реки любви. Концерт в Crocus City Hall [2012, Rock, HDTV 1080i]

Reply to topic
 
Author
Message

Omen ®

Longevity: 8 years 3 months

Posts: 181087

Торрент-статистика

Post 16-Sep-2013 05:48

[Quote]

Би-2. Реки любви. Концерт в Crocus City Hall
Жанр: Rock
Продолжительность: 01:19:29
Год выпуска: 2012
Описание: Группа "Би-2" объединила современную музыку с классической традицией и представляет концерт с Симфоническим оркестром МВД России. Лирические песни, энергичный рок, и даже диско-панк – все популярные хиты группы "Би-2" прозвучат в величественном и потрясающем воображение симфоническом звучании. "Би-2" далеко не первыми стали исполнять рок-музыку с оркестром, но, в отличие от многих других, подошли к этому не просто как к исполнению тех же нот другими инструментами, а практически придумали свои песни заново с помощью аранжировщика, заслуженного деятеля искусств России Геннадия Корнилова. В результате лирические вещи (в их числе "Вечная призрачная встречная" и "Реки любви" из фильма "О чем говорят мужчины", популярные "Мой рок-н-ролл" с "Серебром" и другие) стали богаче и красивее, а давно известные рок-боевики (например, "Полковнику никто не пишет") зазвучали совершенно по-новому. Когда в диско-панковой "Дурочке" вместо ожидаемой остинатной партии гитары вступает перекличка струнных и духовых, публику это приводит в восторг: "С оркестром все слышится совершенно по-другому! Более насыщенно, прочувствованно", "Оркестр подчеркнул самые эмоциональные моменты песен "Би-2": струнная группа — лаунжевость и задумчивость, духовые секции — возвышенность и душевный подъем".
В концерте примут участие и звездные гости: Тамара Гвердцители, Инна Желанная, Рейнарс Кауперс (гр. "Brainstorm"), Александр Кутиков, Настя Полева.
Треклист:
01. Последний герой
02. Мой рок-н-ролл
03. Скользкие улицы
04. Муза
05. Падает снег
06. Шамбала
07. Фламенко
08. Bowie
09. Дурочка
10. Моя любовь
11. Её глаза
12. Вечная призрачная встречная
13. Реки любви
14. Блюз
15. Полковнику никто не пишет
16. Серебро
17. Варвара
Доп. информация: Релиз -

Рип чистый. Без посторонних надписей. Выкладывается как есть.
Качество: HDTV 1080i
Контейнер: TS
Видео кодек: H.264
Аудио кодек: MP3
Видео: 1920x1080 (16:9) 25.000 fps 8 145 Kbps, 0.157 bit/pixel
Аудио: MPEG Audio 48000Hz stereo 192 Кбит/сек

Отчёт MediaInfo

GeneralID : 1 (0x1)Complete name : D:\Выкладка\Би-2. Реки любви. Концерт в Crocus City Hall (2012, Rock, HDTV 1080i) (MYDIMKA).tsFormat : MPEG-TSFile size : 4.87 GiBDuration : 1h 19mnOverall bit rate mode : VariableOverall bit rate : 8 772 KbpsMaximum Overall bit rate : 35.5 Mbps
VideoID : 4113 (0x1011)Menu ID : 1 (0x1)Format : AVCFormat/Info : Advanced Video CodecFormat profile : [email protected] settings, CABAC : YesFormat settings, ReFrames : 3 framesCodec ID : 27Duration : 1h 19mnBit rate mode : VariableBit rate : 8 145 KbpsMaximum bit rate : 40.0 MbpsWidth : 1 920 pixelsHeight : 1 080 pixelsDisplay aspect ratio : 16:9Frame rate : 25.000 fpsColor space : YUVChroma subsampling : 4:2:0Bit depth : 8 bitsScan type : ProgressiveBits/(Pixel*Frame) : 0.157Stream size : 4.52 GiB (93%)
AudioID : 4352 (0x1100)Menu ID : 1 (0x1)Format : MPEG AudioFormat version : Version 1Format profile : Layer 3Codec ID : 4Duration : 1h 19mnBit rate mode : ConstantBit rate : 192 KbpsChannel(s) : 2 channelsSampling rate : 48.0 KHzCompression mode : LossyStream size : 22.9 MiB (0%)Writing library : LAME3.99rEncoding settings : -m s -V 4 -q 2 -lowpass 18.6 -b 192

Скриншоты


Скринлист

Other forum [Profile] [PM]
Display posts from previous:    
Reply to topic

The time now is: Today 11:01

All times are GMT + 3 Hours



You cannot post new topics in this forum
You cannot reply to topics in this forum
You cannot edit your posts in this forum
You cannot delete your posts in this forum
You cannot vote in polls in this forum
You cannot attach files in this forum
You cannot download files in this forum