Today is a free download without charge Download

Кин-дза-дза! (Георгий Данелия) [1986, СССР, Фантастика, драма, комедия, приключения, BDRip 720p] + Sub Rus + Original Rus

Reply to topic
 
Author
Message

Omen ®

Longevity: 8 years 10 months

Posts: 181086

Торрент-статистика

Post 16-Sep-2013 01:43

[Quote]

-Кин-дза-дза!-Страна: СССР
Жанр: Фантастика, драма, комедия, приключения
Год выпуска: 1986
Продолжительность: 01:06:12 + 01:06:36-Перевод: Не требуется
Cубтитры: русские , английские (x6)
Оригинальная аудиодорожка: русский-Режиссер: Георгий Данелия
В ролях: Евгений Леонов, Станислав Любшин, Юрий Яковлев, Леван Габриадзе, Ольга Машная, Ирина Шмелёва, Лев Перфилов, Анатолий Серенко, Александра Дорохина, Олеся Иванова, Татьяна Новицкая, Татьяна Перфильева, Людмила Солоденко, Галина Юркова-Данелия, Игорь Боголюбов, Валентин Букин, Юрий Воронков, Николай Гаро, Валентин Голубенко, Геннадий Иванов, Игорь Кан, Александр Литовкин, Олег Матвеев-Описание: Прораб Владимир Николаевич Машков и не подозревал, что обычный путь до универсама за хлебом и макаронами обернется межгалактическими путешествиями. А все эта встреча со студентом в кроличьей шапке с большой сумкой и с каким-то маленьким устройством — «машинкой перемещения», как он ее сам называл.
Короче, нажал на кнопку — и оказался вместе с молодым человеком в пустыне, и не в каких-нибудь Каракумах, а на планете-пустыне Плюк в тентуре, галактика Кин-дза-дза в спирали…-Сэмпл: http://yadi.sk/d/sODUETzF9L5xQ-Тип релиза: BDRip 720p
Контейнер: MKV
Видео: 988x720 & 960x720 p / 23,976 fps / 16:9 /MPEG-4 AVC Video, High Profile 4.1 ~ 6957 kbps & 5900 kbps
Аудио: Russian: 48 kHz / 24-bit, FLAC 1.0, 696 kbps & 703 kbps
Аудио 2: Russian: 48 kHz, AC3, 5.1, ~640 kbps
Формат субтитров: softsub (SRT)

Видеоряд от SbR

██████████████████████████████████████████████████████████████████████████████ ██══════════════════════════════════════════════════════════════════════════╗█ █║ ║█ █║ SSSSSSSSSSSSSSS RRRRRRRRRRRRRRRRR ║█ █║ SS:::::::::::::::Sb R::::::::::::::::R ║█ █║ S:::::SSSSSS::::::Sbbbbbbbb R::::::RRRRRR:::::R ║█ █║ S:::::S SSSSSSSb::::::b RR:::::R R:::::R ║█ █║ S:::::S b::::::b R::::R R:::::R ║█ █║ S:::::S b:::::b R::::R R:::::R ║█ █║ S::::SSSS b:::::bbbbbbbbb R::::RRRRRR:::::R ║█ █║ SS::::::SSSSS b::::::::::::::bb R:::::::::::::RR ║█ █║ SSS::::::::SS b::::::::::::::::b R::::RRRRRR:::::R ║█ █║ SSSSSS::::S b:::::bbbbb:::::::b R::::R R:::::R ║█ █║ S:::::S b:::::b b::::::b R::::R R:::::R ║█ █║ S:::::S b:::::b b:::::b R::::R R:::::R ║█ █║ SSSSSSS S:::::S b:::::b b:::::bRR:::::R R:::::R ║█ █║ S::::::SSSSSS:::::S b:::::b b:::::bR::::::R R:::::R ║█ █║ S:::::::::::::::SS b:::::bbbbbb::::::bR::::::R R:::::R ║█ █║ SSSSSSSSSSSSSSS b::::::::::::::::b RRRRRRRR RRRRRRR ║█ █║ b:::::::::::::::b ║█ █║ bbbbbbbbbbbbbbbb ║█ █║ ║█ █╚══════════════════════════════════════════════════════════════════════════██ ██████████████████████████████████████████████████████████████████████████████
██████████████████████████████████████████████████████████████████████████████ ██ █ █ RELEASE NAME..: Kin-dza-dza!1986.720p.BluRay.DTS.FLAC.x264-SbR █ █ RELEASE SIZE..: 3.84 + 3.37 GiB █ █ RUNTIME.......: 01:06:13 + 01:06:36 █ █ VIDEO CODEC...: x264, crf, L4.1 █ █ FRAMERATE.....: 23.976 fps █ █ BITRATE.......: 6957 kbps & 5900 kbps █ █ RESOLUTION....: 988x720 & 960x720 █ █ AUDIO1........: Russian FLAC 1.0 @ 696 kbps & 703 kbps █ █ AUDIO2........: Russian DD 5.1 @ 640 kbps █ █ SUBTITLES.....: 5xEng, Rus █ █ CHAPTERS......: Included █ █ SOURCE........: Kin-dza-dza! 1986 1080p RUS Blu-ray AVC █ █ DTS-HD MA 5.1-HDCLUB █ █ █ █ RELEASE DATE..: 09.09.2013 █ █ ENCODER.......: Lesnick █ █ ██ ██████████████████████████████████████████████████████████████████████████████
x264log
x264 [info]: frame I:553 Avg QP:18.07 size:101825x264 [info]: frame P:18056 Avg QP:18.53 size: 67422x264 [info]: frame B:76647 Avg QP:19.66 size: 28459
x264 [info]: frame I:518 Avg QP:17.87 size: 95635x264 [info]: frame P:18970 Avg QP:18.28 size: 56336x264 [info]: frame B:76329 Avg QP:19.24 size: 23964Source | Encode










MI

Kin-dza-dza!Part.One.1986.720p.BluRay.DTS.FLAC.x264-SbR

Код:
General
Complete name                    : W:\Фильмы\Наше\Кин-дза-дза! (1986)\Kin-dza-dza!Part.One.1986.720p.BluRay.DTS.FLAC.x264-SbR.mkv
Format                           : Matroska
File size                        : 3.84 GiB
Duration                         : 1h 6mn
Overall bit rate                 : 8 296 Kbps
Encoded date                     : UTC 2013-09-09 13:55:20
Writing application              : mkvmerge v6.3.0 ('You can't stop me!') built on Jun 28 2013 20:09:41
Writing library                  : libebml v1.3.0 + libmatroska v1.4.0
Video
ID                               : 1
Format                           : AVC
Format/Info                      : Advanced Video Codec
Format profile                   : [email protected]
Format settings, CABAC           : Yes
Format settings, ReFrames        : 11 frames
Muxing mode                      : Container [email protected]
Codec ID                         : V_MPEG4/ISO/AVC
Duration                         : 1h 6mn
Width                            : 988 pixels
Height                           : 720 pixels
Display aspect ratio             : 1.372
Frame rate                       : 23.976 fps
Color space                      : YUV
Chroma subsampling               : 4:2:0
Bit depth                        : 8 bits
Scan type                        : Progressive
Title                            : Кин-дза-дза! (1986) Первая серия
Writing library                  : x264 core 138 r2359+704+48 3f879a0 tMod [[email protected] X86_64]
Encoding settings                : cabac=1 / ref=11 / deblock=1:-3:-3 / analyse=0x3:0x133 / me=umh / subme=11 / psy=1 / fade_compensate=0.00 / psy_rd=1.00:0.00 / mixed_ref=1 / me_range=36 / chroma_me=1 / trellis=2 / 8x8dct=1 / cqm=0 / deadzone=21,11 / fast_pskip=0 / chroma_qp_offset=-2 / threads=12 / lookahead_threads=3 / sliced_threads=0 / nr=0 / decimate=1 / interlaced=0 / bluray_compat=0 / constrained_intra=0 / fgo=0 / bframes=16 / b_pyramid=2 / b_adapt=2 / b_bias=0 / direct=3 / weightb=1 / open_gop=0 / weightp=2 / keyint=250 / keyint_min=23 / scenecut=40 / intra_refresh=0 / rc=crf / mbtree=0 / crf=20.4000 / qcomp=0.80 / qpmin=0:0:0 / qpmax=69:69:69 / qpstep=4 / ip_ratio=1.20 / pb_ratio=1.20 / aq=4:0.85 / aq-sensitivity=10.00 / aq-factor=1.00:1.00:1.00 / aq2=1:1.00 / aq2-sensitivity=15.00 / aq2-factor=1.00:1.00:1.00 / aq3=2:[0.50:0.50]:[0.50:0.50]:[0.50:0.50]:[0.50:0.50] / aq3-sensitivity=10.00 / aq3-factor=[1.00:1.00]:[1.00:1.00]:[1.00:1.00] / aq3-boundary=192:64:24
Language                         : Russian
Audio #1
ID                               : 2
Format                           : FLAC
Format/Info                      : Free Lossless Audio Codec
Codec ID                         : A_FLAC
Duration                         : 1h 6mn
Bit rate mode                    : Variable
Channel(s)                       : 1 channel
Sampling rate                    : 48.0 KHz
Bit depth                        : 24 bits
Writing library                  : libFLAC 1.2.1 (UTC 2007-09-17)
Language                         : Russian
Audio #2
ID                               : 3
Format                           : AC-3
Format/Info                      : Audio Coding 3
Mode extension                   : CM (complete main)
Codec ID                         : A_AC3
Duration                         : 1h 6mn
Bit rate mode                    : Constant
Bit rate                         : 640 Kbps
Channel(s)                       : 6 channels
Channel positions                : Front: L C R, Side: L R, LFE
Sampling rate                    : 48.0 KHz
Bit depth                        : 16 bits
Stream size                      : 303 MiB (8%)
Language                         : Russian
Text #1
ID                               : 4
Format                           : UTF-8
Codec ID                         : S_TEXT/UTF8
Codec ID/Info                    : UTF-8 Plain Text
Language                         : Russian
Text #2
ID                               : 5
Format                           : UTF-8
Codec ID                         : S_TEXT/UTF8
Codec ID/Info                    : UTF-8 Plain Text
Language                         : English
Text #3
ID                               : 6
Format                           : UTF-8
Codec ID                         : S_TEXT/UTF8
Codec ID/Info                    : UTF-8 Plain Text
Language                         : English
Text #4
ID                               : 7
Format                           : UTF-8
Codec ID                         : S_TEXT/UTF8
Codec ID/Info                    : UTF-8 Plain Text
Language                         : English
Text #5
ID                               : 8
Format                           : UTF-8
Codec ID                         : S_TEXT/UTF8
Codec ID/Info                    : UTF-8 Plain Text
Language                         : English
Text #6
ID                               : 9
Format                           : UTF-8
Codec ID                         : S_TEXT/UTF8
Codec ID/Info                    : UTF-8 Plain Text
Language                         : English
Menu
00:00:00.000                     : en:00:00:00.000
00:08:32.512                     : en:00:08:32.512
00:16:33.284                     : en:00:16:33.284
00:20:35.901                     : en:00:20:35.901
00:25:14.138                     : en:00:25:14.138
00:33:52.030                     : en:00:33:52.030
00:42:38.097                     : en:00:42:38.097
00:48:46.006                     : en:00:48:46.006
00:54:04.992                     : en:00:54:04.992
01:03:32.225                     : en:01:03:32.225

Kin-dza-dza!Part.Two.1986.720p.BluRay.DTS.FLAC.x264-SbR

Код:
General
Complete name                    : W:\Фильмы\Наше\Кин-дза-дза! (1986)\Kin-dza-dza!Part.Two.1986.720p.BluRay.DTS.FLAC.x264-SbR.mkv
Format                           : Matroska
File size                        : 3.37 GiB
Duration                         : 1h 6mn
Overall bit rate                 : 7 241 Kbps
Encoded date                     : UTC 2013-09-09 14:37:53
Writing application              : mkvmerge v6.3.0 ('You can't stop me!') built on Jun 28 2013 20:09:41
Writing library                  : libebml v1.3.0 + libmatroska v1.4.0
Video
ID                               : 1
Format                           : AVC
Format/Info                      : Advanced Video Codec
Format profile                   : [email protected]
Format settings, CABAC           : Yes
Format settings, ReFrames        : 12 frames
Muxing mode                      : Container [email protected]
Codec ID                         : V_MPEG4/ISO/AVC
Duration                         : 1h 6mn
Width                            : 960 pixels
Height                           : 720 pixels
Display aspect ratio             : 4:3
Frame rate                       : 23.976 fps
Color space                      : YUV
Chroma subsampling               : 4:2:0
Bit depth                        : 8 bits
Scan type                        : Progressive
Title                            : Кин-дза-дза! (1986) Вторая серия
Writing library                  : x264 core 138 r2359+704+48 3f879a0 tMod [[email protected] X86_64]
Encoding settings                : cabac=1 / ref=12 / deblock=1:-3:-3 / analyse=0x3:0x133 / me=umh / subme=11 / psy=1 / fade_compensate=0.00 / psy_rd=1.00:0.00 / mixed_ref=1 / me_range=36 / chroma_me=1 / trellis=2 / 8x8dct=1 / cqm=0 / deadzone=21,11 / fast_pskip=0 / chroma_qp_offset=-2 / threads=12 / lookahead_threads=3 / sliced_threads=0 / nr=0 / decimate=1 / interlaced=0 / bluray_compat=0 / constrained_intra=0 / fgo=0 / bframes=16 / b_pyramid=2 / b_adapt=2 / b_bias=0 / direct=3 / weightb=1 / open_gop=0 / weightp=2 / keyint=250 / keyint_min=23 / scenecut=40 / intra_refresh=0 / rc=crf / mbtree=0 / crf=20.4000 / qcomp=0.80 / qpmin=0:0:0 / qpmax=69:69:69 / qpstep=4 / ip_ratio=1.20 / pb_ratio=1.20 / aq=4:0.85 / aq-sensitivity=10.00 / aq-factor=1.00:1.00:1.00 / aq2=1:1.00 / aq2-sensitivity=15.00 / aq2-factor=1.00:1.00:1.00 / aq3=2:[0.50:0.50]:[0.50:0.50]:[0.50:0.50]:[0.50:0.50] / aq3-sensitivity=10.00 / aq3-factor=[1.00:1.00]:[1.00:1.00]:[1.00:1.00] / aq3-boundary=192:64:24
Language                         : Russian
Audio #1
ID                               : 2
Format                           : FLAC
Format/Info                      : Free Lossless Audio Codec
Codec ID                         : A_FLAC
Duration                         : 1h 6mn
Bit rate mode                    : Variable
Channel(s)                       : 1 channel
Sampling rate                    : 48.0 KHz
Bit depth                        : 24 bits
Writing library                  : libFLAC 1.2.1 (UTC 2007-09-17)
Language                         : Russian
Audio #2
ID                               : 3
Format                           : AC-3
Format/Info                      : Audio Coding 3
Mode extension                   : CM (complete main)
Codec ID                         : A_AC3
Duration                         : 1h 6mn
Bit rate mode                    : Constant
Bit rate                         : 640 Kbps
Channel(s)                       : 6 channels
Channel positions                : Front: L C R, Side: L R, LFE
Sampling rate                    : 48.0 KHz
Bit depth                        : 16 bits
Stream size                      : 305 MiB (9%)
Language                         : Russian
Text #1
ID                               : 4
Format                           : UTF-8
Codec ID                         : S_TEXT/UTF8
Codec ID/Info                    : UTF-8 Plain Text
Language                         : Russian
Text #2
ID                               : 5
Format                           : UTF-8
Codec ID                         : S_TEXT/UTF8
Codec ID/Info                    : UTF-8 Plain Text
Language                         : English
Text #3
ID                               : 6
Format                           : UTF-8
Codec ID                         : S_TEXT/UTF8
Codec ID/Info                    : UTF-8 Plain Text
Language                         : English
Text #4
ID                               : 7
Format                           : UTF-8
Codec ID                         : S_TEXT/UTF8
Codec ID/Info                    : UTF-8 Plain Text
Language                         : English
Text #5
ID                               : 8
Format                           : UTF-8
Codec ID                         : S_TEXT/UTF8
Codec ID/Info                    : UTF-8 Plain Text
Language                         : English
Text #6
ID                               : 9
Format                           : UTF-8
Codec ID                         : S_TEXT/UTF8
Codec ID/Info                    : UTF-8 Plain Text
Language                         : English
Text #7
ID                               : 10
Format                           : UTF-8
Codec ID                         : S_TEXT/UTF8
Codec ID/Info                    : UTF-8 Plain Text
Language                         : English
Menu
00:00:00.000                     : :
00:09:33.072                     : :
00:16:45.713                     : :
00:26:01.518                     : :
00:30:35.375                     : :
00:34:03.458                     : :
00:40:32.847                     : :
00:45:14.921                     : :
00:54:58.212                     : :
01:00:58.905                     : :

Скриншоты


Other forum [Profile] [PM]
Display posts from previous:    
Reply to topic

The time now is: Today 03:16

All times are GMT + 3 Hours



You cannot post new topics in this forum
You cannot reply to topics in this forum
You cannot edit your posts in this forum
You cannot delete your posts in this forum
You cannot vote in polls in this forum
You cannot attach files in this forum
You cannot download files in this forum