Today is a free download without charge Download

Bryan Adams - The Bare Bones Tour - Live at Sydney Opera House [2013, Rock, BDRip 1080p]

Reply to topic
 
Author
Message

Omen ®

Longevity: 8 years 4 months

Posts: 181087

Торрент-статистика

Post 15-Sep-2013 21:30

[Quote]

Bryan Adams
The Bare Bones Tour ● Live at Sydney Opera House
- Жанр: Rock
Продолжительность: 1:43:24
Год выпуска: 2013

Tracklist

01 ■ Introduction
02 ■ Run to you
03 ■ Back to you
04 ■ Here i am
05 ■ I'm ready
06 ■ This time
07 ■ Flying
08 ■ Let's make a night to remember
09 ■ Can't stop this thing we started
10 ■ Waiting on the '49
11 ■ In the heat of the night
12 ■ (everything i do) i do it for you
13 ■ Cuts like a knife
14 ■ Please forgive me
15 ■ Tonight in babylon
16 ■ Summer of '69
17 ■ Walk on by
18 ■ Heaven
19 ■ The right place
20 ■ The only thing that looks good on me is you
21 ■ Somebody
22 ■ You've been a friend to me
23 ■ When you're gone
24 ■ Have you ever really loved a woman?
25 ■ I still miss you... a little bit
26 ■ Straight from the heart
Качество: BDRip 1080p
Контейнер: MKV
Видео кодек: H.264
Аудио кодек: DTS
Видео: AVC, 1920:1080, 9086 kbps, 29.970 fps
Аудио: DTS, 1509 kbps, 48 kHz, 6 chRip By LOUNGE

Отчёт MediaInfo / BDInfo

Уникальный идентификатор : 186929973215200576159802563353237517275 (0x8CA1673E22BEAB32A630BEF3DA93F3DB)Полное имя : H:\CAPTURE\Bryan.Adams.The.Bare.Bones.Tour.Live.At.Sydney.Opera.House.2011.1080p.MBluRay.x264-LOUNGE.mkvФормат : MatroskaВерсия формата : Version 4 / Version 2Размер файла : 7,65 ГбайтПродолжительность : 1 ч. 43 м.Общий поток : 10,6 Мбит/секДата кодирования : UTC 2013-09-07 22:29:11Программа кодирования : mkvmerge v6.3.0 ('You can't stop me!') built on Jun 28 2013 20:09:41Библиотека кодирования : libebml v1.3.0 + libmatroska v1.4.0
ВидеоИдентификатор : 1Формат : AVCФормат/Информация : Advanced Video CodecПрофиль формата : [email protected]Параметр CABAC формата : ДаПараметр ReFrames формата : 4 кадраИдентификатор кодека : V_MPEG4/ISO/AVCПродолжительность : 1 ч. 43 м.Битрейт : 9086 Кбит/секШирина : 1920 пикселейВысота : 1080 пикселейСоотношение сторон : 16:9Режим частоты кадров : ПостоянныйЧастота кадров : 29,970 кадров/секЦветовое пространство : YUVСубдискретизация насыщенности : 4:2:0Битовая глубина : 8 битТип развёртки : ПрогрессивнаяБит/(Пиксели*Кадры) : 0.146Размер потока : 6,41 Гбайт (84%)Библиотека кодирования : x264 core 133 r2334 a3ac64bНастройки программы : cabac=1 / ref=4 / deblock=1:0:0 / analyse=0x3:0x133 / me=umh / subme=8 / psy=1 / psy_rd=1.00:0.00 / mixed_ref=1 / me_range=16 / chroma_me=1 / trellis=1 / 8x8dct=1 / cqm=0 / deadzone=21,11 / fast_pskip=0 / chroma_qp_offset=-2 / threads=12 / lookahead_threads=2 / sliced_threads=0 / nr=0 / decimate=1 / interlaced=0 / bluray_compat=0 / constrained_intra=0 / bframes=3 / b_pyramid=2 / b_adapt=1 / b_bias=0 / direct=1 / weightb=1 / open_gop=0 / weightp=2 / keyint=250 / keyint_min=25 / scenecut=40 / intra_refresh=0 / rc_lookahead=40 / rc=2pass / mbtree=1 / bitrate=9086 / ratetol=1.0 / qcomp=0.60 / qpmin=0 / qpmax=69 / qpstep=4 / cplxblur=20.0 / qblur=0.5 / ip_ratio=1.40 / aq=1:1.00Язык : EnglishDefault : ДаForced : Нет
АудиоИдентификатор : 2Формат : DTSФормат/Информация : Digital Theater SystemsРежим : 16Параметр Endianness формата : BigИдентификатор кодека : A_DTSПродолжительность : 1 ч. 43 м.Вид битрейта : ПостоянныйБитрейт : 1509 Кбит/секКаналы : 6 каналовРасположение каналов : Front: L C R, Side: L R, LFEЧастота : 48,0 КГцБитовая глубина : 24 битМетод сжатия : С потерямиРазмер потока : 1,09 Гбайт (14%)Default : ДаForced : Нет
Меню00:00:00.000 : en:00:00:00.00000:01:27.087 : en:00:01:27.08700:04:58.298 : en:00:04:58.29800:09:51.591 : en:00:09:51.59100:14:31.871 : en:00:14:31.87100:18:57.403 : en:00:18:57.40300:22:13.332 : en:00:22:13.33200:25:49.681 : en:00:25:49.68100:30:14.813 : en:00:30:14.81300:33:54.032 : en:00:33:54.03200:37:19.237 : en:00:37:19.23700:41:48.639 : en:00:41:48.63900:47:32.850 : en:00:47:32.85000:52:48.465 : en:00:52:48.46500:56:58.415 : en:00:56:58.41501:00:26.623 : en:01:00:26.62301:04:10.847 : en:01:04:10.84701:07:56.072 : en:01:07:56.07201:13:27.403 : en:01:13:27.40301:16:40.596 : en:01:16:40.59601:19:56.792 : en:01:19:56.79201:23:15.991 : en:01:23:15.99101:26:28.183 : en:01:26:28.18301:29:44.379 : en:01:29:44.37901:34:55.690 : en:01:34:55.69001:38:25.900 : en:01:38:25.900

Скриншоты

Cover

Other forum [Profile] [PM]
Display posts from previous:    
Reply to topic

The time now is: Today 06:43

All times are GMT + 3 Hours



You cannot post new topics in this forum
You cannot reply to topics in this forum
You cannot edit your posts in this forum
You cannot delete your posts in this forum
You cannot vote in polls in this forum
You cannot attach files in this forum
You cannot download files in this forum