Today is a free download without charge Download

Death Cab For Cutie - Front Row Center Series [2011, Indie Rock, HDTV 1080р]

Reply to topic
 
Author
Message

Omen ®

Longevity: 8 years 3 months

Posts: 181087

Торрент-статистика

Post 15-Sep-2013 13:15

[Quote]

Death Cab For Cutie - Front Row Center Series
Жанр: Indie Rock
Продолжительность: 00:54:26
Год выпуска: 2011
Описание:
Death Cab For Cutie - Front Row Center Series
Концерт в поддержку альбома Narrow Stairs, 2008.
Треклист:
1. Employment Pages
2. Your Heart Is An Empty Room
3. New Year
4. Crooked Teeth
5. My Mirror Speaks
6. Summer Skin
7. Soul Meets Body
8. I Will Possess Your Heart
9. Cath
10. Long Division
11. Sound of Settling
12. Transatlanticism
Качество: HDTV 1080р
Контейнер: MP4
Видео кодек: H.264
Аудио кодек: AAC
Видео: Видео: 1920x1080 (16:9), 25.00 fps, AVC, 8101 Кбит, 0.159 bits/pixel
Аудио: Аудио: 48.0 KHz, AAC-LC, 2 ch, 128 Kbps VBR

Отчёт MediaInfo

Полное имя : G:\DVD\Death Cab For Cutie (2011)\Death Cab For Cutie - Front Row Center Series.mp4Формат : MPEG-4Профиль формата : Base Media / Version 2Идентификатор кодека : mp42Размер файла : 3,31 ГбайтПродолжительность : 54 м.Общий поток : 8708 Кбит/секДата кодирования : UTC 2013-09-14 16:20:03Дата пометки : UTC 2013-09-14 16:20:03
ВидеоИдентификатор : 2Формат : AVCФормат/Информация : Advanced Video CodecПрофиль формата : [email protected]Параметр CABAC формата : ДаПараметр ReFrames формата : 2 кадраИдентификатор кодека : avc1Идентификатор кодека/Информация : Advanced Video CodingПродолжительность : 54 м.Вид битрейта : ПеременныйБитрейт : 8320 Кбит/секМаксимальный битрейт : 8101 Кбит/секШирина : 1920 пикселейВысота : 1088 пикселейВысота оригинала : 1080 пикселейСоотношение сторон : 16:9Соотношение сторон в оригинале : 16:9Режим частоты кадров : ПостоянныйЧастота кадров : 25,000 кадров/секЧастота кадров в оригинале : 12,500 кадров/секЦветовое пространство : YUVСубдискретизация насыщенности : 4:2:0Битовая глубина : 8 битТип развёртки : ПрогрессивнаяБит/(Пиксели*Кадры) : 0.159Размер потока : 3,16 Гбайт (96%)Язык : EnglishДата кодирования : UTC 2013-09-14 16:20:03Дата пометки : UTC 2013-09-14 16:20:03
АудиоИдентификатор : 1Формат : AACФормат/Информация : Advanced Audio CodecПрофиль формата : LCИдентификатор кодека : 40Продолжительность : 54 м.Вид битрейта : ПостоянныйБитрейт : 384 Кбит/секНоминальный битрейт : 128 Кбит/секКаналы : 2 каналаРасположение каналов : Front: L RЧастота : 48,0 КГцМетод сжатия : С потерямиРазмер потока : 149 Мбайт (4%)Язык : EnglishДата кодирования : UTC 2013-09-14 16:20:03Дата пометки : UTC 2013-09-14 16:20:03
Other forum [Profile] [PM]
Display posts from previous:    
Reply to topic

The time now is: Today 09:01

All times are GMT + 3 Hours



You cannot post new topics in this forum
You cannot reply to topics in this forum
You cannot edit your posts in this forum
You cannot delete your posts in this forum
You cannot vote in polls in this forum
You cannot attach files in this forum
You cannot download files in this forum