Today is a free download without charge Download

Razorlight - Live at the 229 Club [2007, Indie Rock, HDTV 1080р]

Reply to topic
 
Author
Message

Omen ®

Longevity: 8 years 4 months

Posts: 181087

Торрент-статистика

Post 14-Sep-2013 16:44

[Quote]

Razorlight - Live at the 229 Club
Жанр: Indie Rock
Продолжительность: 00:49:55
Год выпуска: 2007
Описание:
Группа даёт концерт в одном из клубов Лондона в присутствии 700 зрителей.
Треклист:
1. In The Morning
2. Hold On
3. Golden Touch
4. Back To The Start
5. America
6. Before I Fall To Pieces
7. In The City
8. Los Angeles Waltz
9. Can't Stop This Feeling I've Got
10. Somewhere Else
11. Fall Fall Fall
12. Vice
Качество: HDTV 1080р
Контейнер: MP4
Видео кодек: H.264
Аудио кодек: AAC
Видео: Видео: 1920x1080 (16:9), 25.00 fps, AVC, 8101 Кбит, 0.159 bits/pixel
Аудио: Аудио: 48.0 KHz, AAC-LC, 2 ch, 128 Kbps VBR

Отчёт MediaInfo

Полное имя : G:\DVD\Razorlight (2007)\Razorlight - Live at the 229 Club.mp4Формат : MPEG-4Профиль формата : Base Media / Version 2Идентификатор кодека : mp42Размер файла : 3,04 ГбайтПродолжительность : 49 м.Общий поток : 8708 Кбит/секДата кодирования : UTC 2013-09-14 05:00:25Дата пометки : UTC 2013-09-14 05:00:25
ВидеоИдентификатор : 2Формат : AVCФормат/Информация : Advanced Video CodecПрофиль формата : [email protected]Параметр CABAC формата : ДаПараметр ReFrames формата : 2 кадраИдентификатор кодека : avc1Идентификатор кодека/Информация : Advanced Video CodingПродолжительность : 49 м.Вид битрейта : ПеременныйБитрейт : 8321 Кбит/секМаксимальный битрейт : 8101 Кбит/секШирина : 1920 пикселейВысота : 1088 пикселейВысота оригинала : 1080 пикселейСоотношение сторон : 16:9Соотношение сторон в оригинале : 16:9Режим частоты кадров : ПостоянныйЧастота кадров : 25,000 кадров/секЧастота кадров в оригинале : 12,500 кадров/секЦветовое пространство : YUVСубдискретизация насыщенности : 4:2:0Битовая глубина : 8 битТип развёртки : ПрогрессивнаяБит/(Пиксели*Кадры) : 0.159Размер потока : 2,90 Гбайт (96%)Язык : EnglishДата кодирования : UTC 2013-09-14 05:00:25Дата пометки : UTC 2013-09-14 05:00:25
АудиоИдентификатор : 1Формат : AACФормат/Информация : Advanced Audio CodecПрофиль формата : LCИдентификатор кодека : 40Продолжительность : 49 м.Вид битрейта : ПостоянныйБитрейт : 384 Кбит/секНоминальный битрейт : 128 Кбит/секКаналы : 2 каналаРасположение каналов : Front: L RЧастота : 48,0 КГцМетод сжатия : С потерямиРазмер потока : 137 Мбайт (4%)Язык : EnglishДата кодирования : UTC 2013-09-14 05:00:25Дата пометки : UTC 2013-09-14 05:00:25
Other forum [Profile] [PM]
Display posts from previous:    
Reply to topic

The time now is: Today 22:25

All times are GMT + 3 Hours



You cannot post new topics in this forum
You cannot reply to topics in this forum
You cannot edit your posts in this forum
You cannot delete your posts in this forum
You cannot vote in polls in this forum
You cannot attach files in this forum
You cannot download files in this forum