Today is a free download without charge Download

(OST) Не моя вина, что я не популярна! / Watamote / Watashi ga Motenai no wa Dou Kangaete mo Omaera ga Warui! / It's Not My Fault That I'm Not Popular! [3CD] [FLAC, image+.cue, lossless] [2013 г.]

Reply to topic
 
Author
Message

Omen ®

Longevity: 9 years 1 month

Posts: 181086

Торрент-статистика

Post 14-Sep-2013 12:40

[Quote]

Не моя вина, что я не популярна! / Watamote / Watashi ga Motenai no wa Dou Kangaete mo Omaera ga Warui! / It's Not My Fault That I'm Not Popular! / 私がモテないのはどう考えてもお前らが悪い! Год выпуска: 2013 г.
Страна: Япония
Продолжительность: 1.17.00
Аудио кодек: FLAC (*.flac)
Тип рипа: image+.cue
Описание: раздача музыки, связанной с аниме Watamote.
Обновляться будет по мере появления дисков в сети.

Watamote OP&ED Special Sample CD TSUTAYA Mini Album

Дата выпуска: 31 июля 2013 г.
Каталог: ZMCZ-8801R
Тип рипа: image+.cue
Продолжительность: 27.36
Наличие сканов в содержимом раздачи: нет
Источник: astost
Треклист:
1) 私がモテないのはどう考えてもお前らが悪い!;
2) どう考えても私は悪くない;
3) Tears BREAKER;
4) 私がモテないのはどう考えてもお前らが悪い! RADIO ~モテないしラジオ聴くか~ 出...;
5) 鈴木このみのこんなんでええんちゃう? 出張版.

Лог проверки качества

Exact Audio Copy V1.0 beta 3 from 29. August 2011
EAC extraction logfile from 6. August 2013, 18:47
Various Artists / 私がモテないのはどう考えてもお前らが悪い! OP&EDミニアルバム
Used drive : Optiarc DVD RW AD-7200S Adapter: 2 ID: 0
Read mode : SecureUtilize accurate stream : YesDefeat audio cache : NoMake use of C2 pointers : No
Read offset correction : 48Overread into Lead-In and Lead-Out : NoFill up missing offset samples with silence : YesDelete leading and trailing silent blocks : NoNull samples used in CRC calculations : YesUsed interface : Native Win32 interface for Win NT & 2000
Used output format : Monkey's Audio Lossless EncoderSelected bitrate : High Lossless CompressionQuality : HighAdd ID3 tag : YesCommand line compressor : C:\tool\Monkey's Audio\MAC.exe
TOC of the extracted CD
Track | Start | Length | Start sector | End sector --------------------------------------------------------- 1 | 0:00.00 | 1:30.02 | 0 | 6751 2 | 1:30.02 | 1:32.28 | 6752 | 13679 3 | 3:02.30 | 1:44.63 | 13680 | 21542 4 | 4:47.18 | 13:14.18 | 21543 | 81110 5 | 18:01.36 | 9:34.12 | 81111 | 124172
Range status and errors
Selected range
Filename D:\CD\Various Artists - 私がモテないのはどう考えてもお前らが悪い! OP&EDミニアルバム.wav
Peak level 100.0 % Extraction speed 5.2 X Range quality 100.0 % Copy CRC 1B178692 Copy OK
No errors occurred
End of status report

[AR] Watamote OP Single - Watashi ga Motenai no wa Dou Kangaete mo Omaera ga Warui

Дата выпуска: 28 августа 2013 г.
Каталог: ZMCZ-8798
Тип рипа: image+.cue
Продолжительность: 21.46
Наличие сканов в содержимом раздачи: да
Источник: astost
Треклист:
1) 私がモテないのはどう考えてもお前らが悪い;
2) 私がモテないのはどう考えてもお前らが悪い(鈴木このみぼっちver.);
3) 私がモテないのはどう考えてもお前らが悪い(キバオブアキバぼっちver.);
4) Tears BREAKER;
5) 私がモテないのはどう考えてもお前らが悪い(off Vocal);
6) Tears BREAKER(off Vocal).

Лог проверки качества

Exact Audio Copy V1.0 beta 3 from 29. August 2011
EAC extraction logfile from 28. August 2013, 14:43
鈴木このみ n' キバオブアキバ / 私がモテないのはどう考えてもお前らが悪い
Used drive : PLEXTOR DVDR PX-650US Adapter: 0 ID: 0
Read mode : SecureUtilize accurate stream : YesDefeat audio cache : YesMake use of C2 pointers : No
Read offset correction : 6Overread into Lead-In and Lead-Out : NoFill up missing offset samples with silence : YesDelete leading and trailing silent blocks : NoNull samples used in CRC calculations : YesUsed interface : Native Win32 interface for Win NT & 2000
Used output format : Internal WAV RoutinesSample format : 44.100 Hz; 16 Bit; Stereo
TOC of the extracted CD
Track | Start | Length | Start sector | End sector --------------------------------------------------------- 1 | 0:00.00 | 3:18.25 | 0 | 14874 2 | 3:18.25 | 3:18.13 | 14875 | 29737 3 | 6:36.38 | 3:19.14 | 29738 | 44676 4 | 9:55.52 | 4:16.53 | 44677 | 63929 5 | 14:12.30 | 3:19.13 | 63930 | 78867 6 | 17:31.43 | 4:14.05 | 78868 | 97922
Range status and errors
Selected range
Filename C:\zxy900906\eac\cd_44.1\鈴木このみ n' キバオブアキバ - 私がモテないのはどう考えてもお前らが悪い.wav
Peak level 100.0 % Extraction speed 3.5 X Range quality 100.0 % Copy CRC 07CF0978 Copy OK
No errors occurred
End of status report
---- CUETools DB Plugin V2.1.4
[CTDB TOCID: J10eqCZz.7S0NUdqyoN0TnWWn50-] foundSubmit result: J10eqCZz.7S0NUdqyoN0TnWWn50- has been confirmedTrack | CTDB Status 1 | (1/1) Accurately ripped 2 | (1/1) Accurately ripped 3 | (1/1) Accurately ripped 4 | (1/1) Accurately ripped 5 | (1/1) Accurately ripped 6 | (1/1) Accurately ripped
==== Log checksum E239925A25E542247E2902A71226EDB9E55CF1A000D1B9B1DCC6F6170D00981C ====

[AR] Watamote ED Single - Dou Kangaete mo Watashi wa Warukunai

Дата выпуска: 28 августа 2013 г.
Каталог: ZMCZ-8800
Тип рипа: image+.cue
Продолжительность: 27.39
Наличие сканов в содержимом раздачи: да
Источник: astost
Треклист:
1) どう考えても私は悪くない;
2) 私がモテないのは可愛くないからだよね?;
3) 夏祭り;
4) どう考えても私は悪くない(off Vocal);
5) 私がモテないのは可愛くないからだよね?(off Vocal);
6) 夏祭り(off Vocal).

Лог проверки качества

Exact Audio Copy V1.0 beta 3 from 29. August 2011
EAC extraction logfile from 12. September 2013, 14:22
V.A. / どう考えても私は悪くない
Used drive : PIONEER DVD-RW DVR-220L Adapter: 1 ID: 0
www.astost.comMGRT encoded by Act_yegoRead mode : SecureUtilize accurate stream : YesDefeat audio cache : YesMake use of C2 pointers : No
Read offset correction : 6Overread into Lead-In and Lead-Out : NoFill up missing offset samples with silence : YesDelete leading and trailing silent blocks : NoNull samples used in CRC calculations : YesUsed interface : Native Win32 interface for Win NT & 2000
Used output format : Internal WAV RoutinesSample format : 44.100 Hz; 16 Bit; Stereo
TOC of the extracted CD
Track | Start | Length | Start sector | End sector --------------------------------------------------------- 1 | 0:00.00 | 4:06.21 | 0 | 18470 2 | 4:06.21 | 5:10.69 | 18471 | 41789 3 | 9:17.15 | 4:34.00 | 41790 | 62339 4 | 13:51.15 | 4:05.46 | 62340 | 80760 5 | 17:56.61 | 5:10.69 | 80761 | 104079 6 | 23:07.55 | 4:31.24 | 104080 | 124428
Range status and errors
Selected range
Filename K:\Encoded\0912\どう考えても私は悪くない\どう考えても私は悪くない.wav
Peak level 99.9 % Extraction speed 6.1 X Range quality 100.0 % Copy CRC 09BF7D1B Copy OK
No errors occurred
End of status report
---- CUETools DB Plugin V2.1.3
[CTDB TOCID: EzCFuDxqGsRdTtu7ju4sNu2kC8Q-] found, Submit result: EzCFuDxqGsRdTtu7ju4sNu2kC8Q- has been confirmed[e2546271] (7/7) Accurately ripped
==== Log checksum A0D7FED1A70FB4968B5CA588838B73EB09B996361CA86816A9101097C650BEA2 ====

-
-[AR] — данное обозначение свидетельствует о том, что рип сделан в соответствии с данными настройками и является максимально точным.-

FAQ

В: Когда тут появится "N-ый" альбом?
О: После его выхода (узнать дату выхода можно, например, на cdjapan), загрузки в интернеты и появления у меня свободного времени.
В: Почему скорость маленькая?
О: Моя исходящая скорость равна 1мбиту, ничего с этим поделать не могу.
В: А как называется трек из "N-ой" серии, играющий на "X" минуте?
О: Рекомендую скачать саундтрек и поискать самим — быстрее будет.
В: Почему треки не разделены?
О: Правилами запрещено менять форм-фактор. Да и раздачи образом мне больше нравятся, если честно.
В: Я нашёл ошибку в оформлении/раздаче.
О: Пожалуйста, напишите мне в личку об этом.
В: Как можно отслеживать релизы?
О: Используя фид на весь раздел остов в лосе (или только мои релизы).
Other forum [Profile] [PM]
Display posts from previous:    
Reply to topic

The time now is: Today 11:07

All times are GMT + 3 Hours



You cannot post new topics in this forum
You cannot reply to topics in this forum
You cannot edit your posts in this forum
You cannot delete your posts in this forum
You cannot vote in polls in this forum
You cannot attach files in this forum
You cannot download files in this forum