Today is a free download without charge Download

Кинг Конг / King Kong (Джон Гиллермин) [1976 г., фантастика, фэнтези, триллер, мелодрама, приключения, BDRip 720p]

Reply to topic
 
Author
Message

Delia ®

Gender:

Longevity: 9 years 6 months

Posts: 1821

Торрент-статистика

Post 25-Sep-2011 07:45

[Quote]

Кинг Конг King Kong Год выпуска: 1976
Страна: США
Жанр: фантастика, фэнтези, триллер, мелодрама, приключения
Продолжительность: 02:14:28
Перевод: Профессиональный (многоголосый, закадровый)
Режиссер: Джон Гиллермин
Продюссер: Дино Де Лаурентис, Федерико Де Лаурентиис, Кристиан Ферри
Сценарий: Джеймс Эшмор Крилмен, Рут Роуз, Лоренцо Семпл мл.
Бюджет: $24 000 000
Премьера в мире: 8 сентября 1976
В ролях: Джефф Бриджес, Чарльз Гродин, Джессика Лэнг, Джон Рэндольф, Рене Обержонуа, Джулиус Харрис, Джек О’Хэллоран, Деннис Фимпл, Эд Лотер, Хорхе Морено
Описание: Нефтеразведочная экспедиция компании «Petrox», к которой хитростью присоединился палеонтолог и защитник природы Джек Прескотт, отправляется на малоизученный тихоокеанский остров. По пути экспедиция спасает потерпевшую кораблекрушение голливудскую звезду Дуэн. На острове нефтяники сталкиваются с гигантской гориллой, которую местные жители называют Конг. Обезьяна похищает Дуан, но Прескотту удается её освободить. Руководитель экспедиции решает, что раз уж нефти на острове найти не удалось, то можно вывезти с него хотя бы обезьяну и заработать, показывая её нью-йоркской публике. Однако во время первого же представления Конг освобождается и начинает крушить все на своём пути...
Качество: BDRip 720p
Формат: MKV
Видео кодек: H.264
Аудио кодек: AC3
Видео: English, 5000 Кбит/сек, 1280*544 (2,35:1), в 23,976 кадр/сек, AVC ([email protected])
Аудио:Russian, 192 Кбит/сек, 48,0 КГц, 16 бит, 2 канала(ов), AC-3 (MVO - НТВ)
Аудио:Russian, 448 Кбит/сек, 48,0 КГц, 16 бит, 6 канала(ов), AC-3 (MVO - Амальгама)
Аудио: English,320 Кбит/сек, 48,0 КГц, 16 бит, 6 канала(ов), AC-3 (оригинал)
Субтитры:Russian,English (VobSub)

MI:

Код:
Общее
Уникальный идентификатор         : 184746540493726033169688352940527716948 (0x8AFCE3B2B9AD0831A3592069C5E40A54)
Полное имя                       : E:\торрент\KING_KONG(1976)BDRip720p.mkv
Формат                           : Matroska
Размер файла                     : 5,60 Гбайт
Продолжительность                : 2 ч. 14 м.
Общий поток                      : 5965 Кбит/сек
Дата кодирования                 : UTC 2011-09-25 04:29:16
Программа кодирования            : mkvmerge v4.9.1 ('Ich will') built on Jul 11 2011 23:53:15
Библиотека кодирования           : libebml v1.2.1 + libmatroska v1.1.1
Видео
Идентификатор                    : 1
Формат                           : AVC
Формат/Информация                : Advanced Video Codec
Профиль формата                  : [email protected]
Параметр CABAC формата           : Да
Параметр ReFrames формата        : 9 кадры
Параметры GOP формата            : N=1
Идентификатор кодека             : V_MPEG4/ISO/AVC
Продолжительность                : 2 ч. 14 м.
Битрейт                          : 5000 Кбит/сек
Ширина                           : 1280 пикс.
Высота                           : 544 пикс.
Соотношение сторон               : 2,35:1
Частота кадров                   : 23,976 кадр/сек
Цветовое пространство            : YUV
Подвыборка цветности             : 4:2:0
Битовая глубина                  : 8 бит
Тип развёртки                    : Прогрессивная
Бит/(Пиксели*Кадры)              : 0.299
Размер потока                    : 4,59 Гбайт (82%)
Библиотека кодирования           : x264 core 118 r2085 8a62835
Настройки программы              : cabac=1 / ref=9 / deblock=1:-3:-2 / analyse=0x3:0x133 / me=umh / subme=9 / psy=1 / psy_rd=1.00:0.15 / mixed_ref=1 / me_range=32 / chroma_me=1 / trellis=2 / 8x8dct=1 / cqm=0 / deadzone=21,11 / fast_pskip=0 / chroma_qp_offset=-3 / threads=6 / sliced_threads=0 / nr=0 / decimate=1 / interlaced=0 / bluray_compat=0 / constrained_intra=0 / bframes=6 / b_pyramid=2 / b_adapt=2 / b_bias=0 / direct=1 / weightb=1 / open_gop=0 / weightp=2 / keyint=250 / keyint_min=23 / scenecut=40 / intra_refresh=0 / rc=2pass / mbtree=0 / bitrate=5000 / ratetol=1.0 / qcomp=1.00 / qpmin=0 / qpmax=69 / qpstep=4 / cplxblur=20.0 / qblur=0.5 / ip_ratio=1.40 / pb_ratio=1.30 / aq=1:1.00
Язык                             : English
Аудио #1
Идентификатор                    : 2
Формат                           : AC-3
Формат/Информация                : Audio Coding 3
Расширение режима                : CM (complete main)
Идентификатор кодека             : A_AC3
Продолжительность                : 2 ч. 14 м.
Вид битрейта                     : Постоянный
Битрейт                          : 192 Кбит/сек
Канал(ы)                         : 2 канала(ов)
Расположение каналов             : Front: L R
Частота                          : 48,0 КГц
Битовая глубина                  : 16 бит
Метод сжатия                     : С потерями
Задержка видео                   : 13 мс.
Размер потока                    : 185 Мбайт (3%)
Язык                             : Russian
Аудио #2
Идентификатор                    : 3
Формат                           : AC-3
Формат/Информация                : Audio Coding 3
Расширение режима                : CM (complete main)
Идентификатор кодека             : A_AC3
Продолжительность                : 2 ч. 14 м.
Вид битрейта                     : Постоянный
Битрейт                          : 448 Кбит/сек
Канал(ы)                         : 6 канала(ов)
Расположение каналов             : Front: L C R, Side: L R, LFE
Частота                          : 48,0 КГц
Битовая глубина                  : 16 бит
Метод сжатия                     : С потерями
Задержка видео                   : 13 мс.
Размер потока                    : 431 Мбайт (8%)
Язык                             : Russian
Аудио #3
Идентификатор                    : 4
Формат                           : AC-3
Формат/Информация                : Audio Coding 3
Расширение режима                : CM (complete main)
Идентификатор кодека             : A_AC3
Продолжительность                : 2 ч. 14 м.
Вид битрейта                     : Постоянный
Битрейт                          : 320 Кбит/сек
Канал(ы)                         : 6 канала(ов)
Расположение каналов             : Front: L C R, Side: L R, LFE
Частота                          : 48,0 КГц
Битовая глубина                  : 16 бит
Метод сжатия                     : С потерями
Размер потока                    : 308 Мбайт (5%)
Язык                             : English
Текст #1
Идентификатор                    : 5
Формат                           : VobSub
Режим смешивания                 : zlib
Идентификатор кодека             : S_VOBSUB
Идентификатор кодека/Информация  : The same subtitle format used on DVDs
Язык                             : Russian
Текст #2
Идентификатор                    : 6
Формат                           : VobSub
Режим смешивания                 : zlib
Идентификатор кодека             : S_VOBSUB
Идентификатор кодека/Информация  : The same subtitle format used on DVDs
Язык                             : English
Меню
00:00:00.000                     : en:Chapter 01
00:07:45.089                     : en:Chapter 02
00:14:36.709                     : en:Chapter 03
00:24:06.862                     : en:Chapter 04
00:32:32.367                     : en:Chapter 05
00:40:28.259                     : en:Chapter 06
00:46:29.203                     : en:Chapter 07
00:51:32.005                     : en:Chapter 08
01:00:10.023                     : en:Chapter 09
01:06:26.983                     : en:Chapter 10
01:12:03.944                     : en:Chapter 11
01:19:18.754                     : en:Chapter 12
01:25:25.120                     : en:Chapter 13
01:30:36.848                     : en:Chapter 14
01:35:03.322                     : en:Chapter 15
01:42:00.322                     : en:Chapter 16
01:49:40.573                     : en:Chapter 17
01:57:03.933                     : en:Chapter 18
02:03:43.040                     : en:Chapter 19
02:12:04.333                     : en:Chapter 20
02:14:28.101                     : en:Chapter 21

Скриншоты

                 

_________________
Человек – это канат, натянутый между животным и сверхчеловеком, – канат над пропастью.
В человеке ценно то, что он мост, а не цель. Фридрих Ницше


Last edited by Delia on 2011-09-25 07:53; edited 1 time in total
Other forum [Profile] [PM]
Display posts from previous:    
Reply to topic

The time now is: Today 00:35

All times are GMT + 3 Hours



You cannot post new topics in this forum
You cannot reply to topics in this forum
You cannot edit your posts in this forum
You cannot delete your posts in this forum
You cannot vote in polls in this forum
You cannot attach files in this forum
You cannot download files in this forum