Today is a free download without charge Download

Joe Strummer & The Mescaleros - Bizarre Festival 1999 [2013, Reggae rock/Alternative rock/Post-punk/Punk rock, HDTV 720p]

Reply to topic
 
Author
Message

Omen ®

Longevity: 8 years 4 months

Posts: 181087

Торрент-статистика

Post 12-Sep-2013 20:48

[Quote]

Joe Strummer & The Mescaleros - Bizarre Festival 1999
Жанр: Reggae rock/Alternative rock/Post-punk/Punk rock
Продолжительность: 00:46:17
Год выпуска: 2013
Описание: Выступление британского вокалиста Джо Страммера и рок бэнда The Mescaleros на фестивале альтернативной музыки Bizarre-Festival в Кельне, Германия 1999 aug21
Доп. информация: Собственная запись со спутникового канала Einsfestival 2013 aug11
Показ в рамках программы Rockpalast.
Треклист: 01. Straight to hell
02. Tony Adams
03. London Calling
04. X Ray Style
05. Rock the casbah
06. White man
07. Yalla yalla
08. Brand new cadillac
09. I fought the law
10. Tommy gun
11. Bankrobber
Качество: HDTV 720p
Контейнер: TS
Видео кодек: H.264
Аудио кодек: AC3
Видео: Mpeg4 AVC, 1280x720, 6890 kbps, 50 fps Progressive
Аудио: AC3, 448 kbps, 48 kHz, stereo
Аудио 2: MP2, 192 kbps, 48 kHz, stereo

Отчёт MediaInfo / BDInfo

GeneralID : 1 (0x1)Complete name : D:\Downloads\Joe Strummer & The Mescaleros - Bizarre Festival 1999.tsFormat : MPEG-TSFile size : 2.56 GiBDuration : 46mn 17sOverall bit rate mode : VariableOverall bit rate : 7 930 Kbps
VideoID : 1601 (0x641)Menu ID : 1 (0x1)Format : AVCFormat/Info : Advanced Video CodecFormat profile : [email protected] settings, CABAC : YesFormat settings, ReFrames : 4 framesCodec ID : 27Duration : 46mn 16sBit rate : 6 891 KbpsWidth : 1 280 pixelsHeight : 720 pixelsDisplay aspect ratio : 16:9Frame rate : 50.000 fpsColor space : YUVChroma subsampling : 4:2:0Bit depth : 8 bitsScan type : ProgressiveBits/(Pixel*Frame) : 0.150Stream size : 2.23 GiB (87%)
Audio #1ID : 1602 (0x642)Menu ID : 1 (0x1)Format : MPEG AudioFormat version : Version 1Format profile : Layer 2Codec ID : 3Duration : 46mn 16sBit rate mode : ConstantBit rate : 192 KbpsChannel(s) : 2 channelsSampling rate : 48.0 KHzCompression mode : LossyStream size : 63.6 MiB (2%)Language : German
Audio #2ID : 1606 (0x646)Menu ID : 1 (0x1)Format : AC-3Format/Info : Audio Coding 3Mode extension : CM (complete main)Format settings, Endianness : BigCodec ID : 6Duration : 46mn 16sBit rate mode : ConstantBit rate : 448 KbpsChannel(s) : 2 channelsChannel positions : Front: L RSampling rate : 48.0 KHzBit depth : 16 bitsCompression mode : LossyStream size : 148 MiB (6%)Language : German
TextID : 1604 (0x644)-100Menu ID : 1 (0x1)Format : TeletextLanguage : German
MenuID : 1600 (0x640)Menu ID : 1 (0x1)Duration : 46mn 17sList : 1601 (0x641) (AVC) / 1606 (0x646) (AC-3, German) / 1602 (0x642) (MPEG Audio, German) / 1604 (0x644) ()Language : / German / German

Скриншоты

Other forum [Profile] [PM]
Display posts from previous:    
Reply to topic

The time now is: Today 17:43

All times are GMT + 3 Hours



You cannot post new topics in this forum
You cannot reply to topics in this forum
You cannot edit your posts in this forum
You cannot delete your posts in this forum
You cannot vote in polls in this forum
You cannot attach files in this forum
You cannot download files in this forum