Today is a free download without charge Download

Ре-цикл / Gwai wik (Оксид Пан / Oxide Pang Chun, Дэнни Пан / Danny Pang) (Ужасы, Фэнтези, 2006) [1080p] BDRip

Reply to topic
 
Author
Message

Omen ®

Longevity: 7 years

Posts: 181090

Торрент-статистика

Post 23-Sep-2011 22:39

[Quote]

Ре-цикл
Gwai wik
-
Русское название: Ре-цикл
Оригинальное название: Gwai wik
Год выпуска: 2006
Жанр: Ужасы, Фэнтези-Описание фильма:
Первый роман молодой писательницы Чу Ксун сразу же стал бестселлером. Окрыленная успехом, Чу берется за новую работу. Ее новая книга - о Стране Призраков и сверхъестественных силах. Но закончив пару глав, Чу не хочет больше писать.
Она уничтожает все файлы, связанные с романом. Только выдуманные образы не уходят и Чу начинает замечать, что реальность и события ненаписаной книги все больше переплетаются. Самые ужасные фантазии готовы стать реальностью…
-Режиссер: Оксид Пан / Oxide Pang Chun, Дэнни Пан / Danny Pang
Актеры: Анджелика Ли (Tsui Ting-Yin), Пи-Со Чинг (The director of 'My Love'), Экин Чэн, Лоуренс Чоу (Lawrence), Viraiwon Jauwseng (Yuk Ling), Сиу-Минг Лау (Old Man), Рэйн Ли, Зенг Ки Ки, Jetrin Wattanasin, Кики Зенг (Ting-yu)
-Продолжительность: 1:48:51
Перевод: Профессиональный (многоголосый, закадровый)- -Видеокодек: MPEG-4 AVC/H.264
Битрейт видео: ~12 Mbps
Размер кадра: 1920x816
Качество видео: BDRip
Аудиокодек: DTS
Битрейт аудио:
Аудио 1: Russian (DTS Core: 5.1 / 48 kHz / 1509 kbps / 16-bit) (Авторский, Сербин)
Аудио 2: Russian (DTS, 5.1, 768 kbps / 48 kHz) (Многоголосый, С.Р.И.)
Аудио 3: Russian (AC3, 5.1, 448 kbps / 48 kHz) (Многоголосый)
Аудио 4: Cantonese (DTS Core: 5.1 / 48 kHz / 1509 kbps / 16-bit)
Субтитры: Русские, английские-

MediaInfo

Код:
Формат                           : Matroska
Размер файла                     : 12,3 Гбайт
Продолжительность                : 1 ч. 48 м.
Общий поток                      : 16,2 Мбит/сек
Дата кодирования                 : UTC 2011-01-18 17:13:08
Программа кодирования            : mkvmerge v3.4.0 ('Rapunzel') сборка от May 15 2010 09:38:20
Библиотека кодирования           : libebml v0.8.0 + libmatroska v0.9.0
Видео
Идентификатор                    : 1
Формат                           : AVC
Формат/Информация                : Advanced Video Codec
Профиль формата                  : [url=mailto:[email protected]][email protected][/url]
Параметр CABAC формата           : Да
Параметр ReFrames формата        : 4 кадры
Идентификатор кодека             : V_MPEG4/ISO/AVC
Продолжительность                : 1 ч. 48 м.
Битрейт                          : 12,0 Мбит/сек
Ширина                           : 1920 пикс.
Высота                           : 816 пикс.
Соотношение сторон               : 2,35:1
Частота кадров                   : 24,000 кадр/сек
Цветовое пространство            : YUV
Подвыборка цветности             : 4:2:0
Битовая глубина                  : 8 бит
Тип развёртки                    : Прогрессивная
Бит/(Пиксели*Кадры)              : 0.318
Размер потока                    : 8,84 Гбайт (72%)
Библиотека кодирования           : x264 core 110 r1820 fdcf2ae
Настройки программы              : cabac=1 / ref=4 / deblock=1:-3:-3 / analyse=0x3:0x113 / me=umh / subme=10 / psy=1 / psy_rd=1.10:0.15 / mixed_ref=1 / me_range=64 / chroma_me=1 / trellis=2 / 8x8dct=1 / cqm=0 / deadzone=21,11 / fast_pskip=0 / chroma_qp_offset=-3 / threads=6 / sliced_threads=0 / nr=0 / decimate=1 / interlaced=0 / constrained_intra=0 / bframes=6 / b_pyramid=2 / b_adapt=2 / b_bias=0 / direct=3 / weightb=1 / open_gop=0 / weightp=2 / keyint=250 / keyint_min=24 / scenecut=40 / intra_refresh=0 / rc_lookahead=40 / rc=2pass / mbtree=0 / bitrate=11951 / ratetol=1.0 / qcomp=0.60 / qpmin=10 / qpmax=51 / qpstep=4 / cplxblur=20.0 / qblur=0.5 / vbv_maxrate=50000 / vbv_bufsize=62500 / ip_ratio=1.40 / pb_ratio=1.30 / aq=1:1.00 / nal_hrd=none
Аудио #1
Идентификатор                    : 2
Формат                           : DTS
Формат/Информация                : Digital Theater Systems
Идентификатор кодека             : A_DTS
Продолжительность                : 1 ч. 48 м.
Вид битрейта                     : Постоянный
Битрейт                          : 1510 Кбит/сек
Канал(ы)                         : 6 канала(ов)
Расположение каналов             : Front: L C R, Side: L R, LFE
Частота                          : 48,0 КГц
Битовая глубина                  : 16 бит
Метод сжатия                     : С потерями
Размер потока                    : 1,15 Гбайт (9%)
Заголовок                        : Сербин, DTS, 1536 kbps
Язык                             : Russian
Аудио #2
Идентификатор                    : 3
Формат                           : DTS
Формат/Информация                : Digital Theater Systems
Идентификатор кодека             : A_DTS
Продолжительность                : 1 ч. 48 м.
Вид битрейта                     : Постоянный
Битрейт                          : 755 Кбит/сек
Канал(ы)                         : 6 канала(ов)
Расположение каналов             : Front: L C R, Side: L R, LFE
Частота                          : 48,0 КГц
Битовая глубина                  : 24 бит
Метод сжатия                     : С потерями
Размер потока                    : 587 Мбайт (5%)
Заголовок                        : MVO R5, DTS, 768 kbps
Язык                             : Russian
Аудио #3
Идентификатор                    : 4
Формат                           : AC-3
Формат/Информация                : Audio Coding 3
Расширение режима                : CM (complete main)
Идентификатор кодека             : A_AC3
Продолжительность                : 1 ч. 48 м.
Вид битрейта                     : Постоянный
Битрейт                          : 448 Кбит/сек
Канал(ы)                         : 6 канала(ов)
Расположение каналов             : Front: L C R, Side: L R, LFE
Частота                          : 48,0 КГц
Битовая глубина                  : 16 бит
Метод сжатия                     : С потерями
Размер потока                    : 349 Мбайт (3%)
Заголовок                        : MVO, AC3 448 kbps
Язык                             : Russian
Аудио #4
Идентификатор                    : 5
Формат                           : DTS
Формат/Информация                : Digital Theater Systems
Идентификатор кодека             : A_DTS
Продолжительность                : 1 ч. 48 м.
Вид битрейта                     : Постоянный
Битрейт                          : 1510 Кбит/сек
Канал(ы)                         : 6 канала(ов)
Расположение каналов             : Front: L C R, Side: L R, LFE
Частота                          : 48,0 КГц
Битовая глубина                  : 24 бит
Метод сжатия                     : С потерями
Размер потока                    : 1,15 Гбайт (9%)
Язык                             : Chinese
Текст #1
Идентификатор                    : 6
Формат                           : UTF-8
Идентификатор кодека             : S_TEXT/UTF8
Идентификатор кодека/Информация  : UTF-8 Plain Text
Язык                             : Russian
Текст #2
Идентификатор                    : 7
Формат                           : UTF-8
Идентификатор кодека             : S_TEXT/UTF8
Идентификатор кодека/Информация  : UTF-8 Plain Text
Язык                             : English
-Скриншоты:
       
       


Last edited by Omen on 2011-09-23 22:42; edited 2 times in total
Other forum [Profile] [PM]

Dracula

Longevity: 6 years

Posts: 10646

Торрент-статистика

Post 24-Sep-2011 11:01 (after 12 hours)

Топик был перенесен из форума Фильмы 2006-2010 в форум Зарубежное кино (HD Video)

Oxygenius
 
Display posts from previous:    
Reply to topic

The time now is: Today 18:03

All times are GMT + 3 Hours



You cannot post new topics in this forum
You cannot reply to topics in this forum
You cannot edit your posts in this forum
You cannot delete your posts in this forum
You cannot vote in polls in this forum
You cannot attach files in this forum
You cannot download files in this forum