Today is a free download without charge Download

Аэлла - Ночные Ведьмы (Aella - Night Witches) официальный клип. 9 мая 2013 [2013, hard-rock, Master]

Reply to topic
 
Author
Message

Omen ®

Longevity: 8 years 3 months

Posts: 181087

Торрент-статистика

Post 12-Sep-2013 08:33

[Quote]

Аэлла - Ночные Ведьмы (Aella - Night Witches) официальный клип. 9 мая 2013
Жанр: hard-rock
Продолжительность: 00:06:43
Год выпуска: 2013
Описание:
Посвящение Летчицам Героям Великой Отечественной Войны.
Под именем "Ночные Ведьмы" девушки из 46-го Гвардейского Таманского авиаполка вошли в историю. Так в годы Великой Отечественной войны ночных бомбардировщиц окрестили немцы. За каждый сбитый ПО-2, управляемый молодыми девчонками, немцы получали серебряный Рыцарский крест и двойной оклад. Столь высоко немецкое руководство ценило головы ночных бомбардировщиц, которые за 3 года непрерывных боев совершили более 24 тыс. вылетов и сбросили на позиции врага более 3000 тонн бомбового груза. И все это совершили юные девушки, общая численность которых была чуть более 100 человек личного состава.
За годы войны каждая третья из них погибла, 23 стали Героями Советского Союза, 2 - Героями России и одна - Героем Республики Казахстан. Многие из них получили эти звания посмертно.
Режиссер: Александр Горюнов
Музыка: Алексей Мартин.
Слова: Игорь Коротышев
Исполняет группа Аэлла:
Наталья Переверзева — бас гитара
Ольга Володькина - гитара
Мария Андреева — ударные
Тилен Аверс — вокал
Татьяна Лепская — клавиши
Ольга Андреева — гитара
Качество: Master
Контейнер: MP4
Видео кодек: H.264
Аудио кодек: AC3
Видео: MPEG4 Video (H264) 1920x1080 25.00fps
Аудио: AAC 48000Hz stereo 1536kbps

Текст Песни Ночные Ведьмы

Ночные ведьмы
1.
Сник закат, день угас,
Вновь по машинам зовет нас приказ.
Тьмы вуаль дарит шанс,
Ласточек скроет от вражеских глаз.
Пусть высота мала и хрупок крыльев фарс,
Но долг вселяет силу в нас!
Небесный тихоход возьмет привычный курс, -
Любой ценой доставить груз!
Припев:
Высокий пульс! В глазах огонь! Ветер в крыльях!
От женских рук стальной штурвал любовью к Родине согрет.
И пусть дрожит от страха враг - не станем горстью пыли;
Пока в сердцах живет мечта, я знаю хуже смерти лишь забвение.
2.
Видим цель - бомбы вниз!
В огненном круге вальсирует жизнь!
Но судьбой не дано
В полном составе вернуться домой.
В бою нет разницы, для пуль мы все равны:
Кому звезда, кому кресты.
Ночные Ведьмы за победу платят долг.
Сорок шестой гвардейский полк.
3.
Мир воскрес... Утра свет...
Стихли сражения тех страшных лет.
В книге войн нет страниц.
Лишь фотографии девичьих лиц.
Нет больше Ведьм Ночных, пришли другие дни,
Но в памяти живут они.
Как дань отдать тому, кто кровь за нас пролил?
Исполним героиням гимн!

Отчёт MediaInfo / BDInfo

ОбщееФормат : MPEG-4Профиль формата : Base Media / Version 2Идентификатор кодека : mp42Размер файла : 1,51 ГбайтПродолжительность : 6 м. 43 с.Режим общего битрейта : ПеременныйОбщий поток : 32,0 Мбит/секДата кодирования : UTC 2013-05-13 10:38:30Дата пометки : UTC 2013-05-13 10:38:30
ВидеоИдентификатор : 1Формат : AVCФормат/Информация : Advanced Video CodecПрофиль формата : [email protected]Параметр CABAC формата : ДаПараметр ReFrames формата : 3 кадраИдентификатор кодека : avc1Идентификатор кодека/Информация : Advanced Video CodingПродолжительность : 6 м. 43 с.Вид битрейта : ПеременныйБитрейт : 31,9 Мбит/секМаксимальный битрейт : 40,0 Мбит/секШирина : 1920 пикселейВысота : 1080 пикселейСоотношение сторон : 16:9Режим частоты кадров : ПостоянныйЧастота кадров : 25,000 кадров/секСтандарт вещания : PALЦветовое пространство : YUVСубдискретизация насыщенности : 4:2:0Битовая глубина : 8 битТип развёртки : ПрогрессивнаяБит/(Пиксели*Кадры) : 0.615Размер потока : 1,50 Гбайт (99%)Язык : EnglishДата кодирования : UTC 2013-05-13 10:38:31Дата пометки : UTC 2013-05-13 10:38:31
АудиоИдентификатор : 2Формат : AACФормат/Информация : Advanced Audio CodecПрофиль формата : LCИдентификатор кодека : 40Продолжительность : 6 м. 43 с.Продолжительность оригинала : 6 м. 43 с.Вид битрейта : ПеременныйБитрейт : 157 Кбит/секМаксимальный битрейт : 249 Кбит/секКаналы : 2 каналаРасположение каналов : Front: L RЧастота : 48,0 КГцМетод сжатия : С потерямиЗадержка видео : 40 мс.Размер потока : 7,58 Мбайт (0%)Размер потока оригинала : 7,58 Мбайт (0%)Язык : EnglishДата кодирования : UTC 2013-05-13 10:38:31Дата пометки : UTC 2013-05-13 10:38:31
Other forum [Profile] [PM]
Display posts from previous:    
Reply to topic

The time now is: Today 13:00

All times are GMT + 3 Hours



You cannot post new topics in this forum
You cannot reply to topics in this forum
You cannot edit your posts in this forum
You cannot delete your posts in this forum
You cannot vote in polls in this forum
You cannot attach files in this forum
You cannot download files in this forum