Today is a free download without charge Download

Suzumiya Haruhi no Shoushitsu / The Disappearance of Haruhi Suzumiya / Исчезновение Харухи Судзумии [2010, MV] BDRip Hi10p 720p Raw+Rus x2

Reply to topic
 
Author
Message

UndegraundMen ®

Longevity: 8 years 11 months

Posts: 25145

Торрент-статистика

Post 11-Sep-2013 17:00

[Quote]

Suzumiya Haruhi no Shoushitsu / The Disappearance of Haruhi Suzumiya / Исчезновение Харухи Судзумии- Жанр: фантастика, комедия, приключения, драма
Тип: полнометражный фильм
Продолжительность: 02:42:16
Премьера: 06.02.2010
Автор: Танигава Нагару
Режиссер: Исихара Тацуя
Студия: -Информационные ссылки: AniDB || World Art || MAL || ANN-Описание:
На дворе стояло промозглое зимнее утро. Самый обыкновенный старшеклассник Кён проводил утренние процедуры без каких-либо отклонений от нормы. Будильник был все таким же наглым и бессердечным, лицо в зеркале над раковиной отнюдь не лучилось бодростью и весельем, а возвышенность, на которой располагалась школа, по-прежнему хладнокровно испытывала школьников на выносливость.
И все же что-то в тот день было не так: странности начались с обмолвки Танигути о вещах, весьма озадачивших Кёна... Впрочем, наш герой с легкостью списал недоразумение на тараканов в голове давнего приятеля, коих по обыкновению водилось у него немало. Но самое интересное ждало его впереди. Придя в школу, юный ворчун с удивлением обнаружил на месте Харухи Судзумии... Рёко Асакуру. О том, что еще вчера с ними училась совсем другая барышня, помнил, конечно, только главный герой.
Да, вы все правильно поняли: главным событием того памятного дня стала пропажа юной богини… Чем закончилась вся эта жутко таинственная история, узнаете сами, посмотрев новое творение Kyoto Animation!© Алексей Мелихов, World Art-Качество: BDRip
Формат: MKV
Видео: x264 (Hi10p), 1280x720, 2323 Kbps, 23.976 fps [NanoAlchemist]
Аудио: Vorbis, 256 Kbps, 48.0 kHz, 2 ch [Original]
Аудио: AC-3, 448 Kbps, 48.0 kHz, 6 ch [Reanimedia] [Дубляж]
Аудио: AAC, 224 Kbps, 48.0 kHz, 2 ch [AniMedia] [MVO]
Субтитры: ASS, Встроенные, Полные | Надписи [Reanimedia]
-

Тех. параметры:

Код:
General
Format                                   : Matroska
Format version                           : Version 4 / Version 2
File size                                : 3.74 GiB
Duration                                 : 2h 42mn
Overall bit rate mode                    : Variable
Overall bit rate                         : 3 302 Kbps
Movie name                               : Reanimedia
Encoded date                             : UTC 2013-09-11 07:34:58
Writing application                      : mkvmerge v6.3.0 ('You can't stop me!') built on Jun 27 2013 22:06:07
Writing library                          : libebml v1.3.0 + libmatroska v1.4.0
Video
ID                                       : 1
Format                                   : AVC
Format/Info                              : Advanced Video Codec
Format profile                           : High [url=mailto:[email protected]][email protected][/url]
Format settings, CABAC                   : Yes
Format settings, ReFrames                : 16 frames
Codec ID                                 : V_MPEG4/ISO/AVC
Duration                                 : 2h 42mn
Width                                    : 1 280 pixels
Height                                   : 720 pixels
Display aspect ratio                     : 16:9
Frame rate mode                          : Constant
Frame rate                               : 23.976 fps
Color space                              : YUV
Chroma subsampling                       : 4:2:0
Bit depth                                : 10 bits
Scan type                                : Progressive
Title                                    : x264 hi10p 720p
Writing library                          : x264 core 129 r2230kMod 1cffe9f
Encoding settings                        : cabac=1 / ref=16 / deblock=1:-2:-2 / analyse=0x3:0x133 / me=umh / subme=11 / psy=1 / fade_compensate=0.00 / psy_rd=0.90:0.00 / mixed_ref=1 / me_range=32 / chroma_me=1 / trellis=2 / 8x8dct=1 / cqm=0 / deadzone=21,11 / fast_pskip=0 / chroma_qp_offset=-2 / threads=6 / lookahead_threads=1 / sliced_threads=0 / nr=0 / decimate=0 / interlaced=0 / bluray_compat=0 / constrained_intra=0 / bframes=16 / b_pyramid=2 / b_adapt=2 / b_bias=0 / direct=1 / weightb=1 / open_gop=0 / weightp=2 / keyint=250 / keyint_min=23 / scenecut=40 / intra_refresh=0 / rc=crf / mbtree=0 / crf=14.0000 / qcomp=0.70 / qpmin=0 / qpmax=28 / qpstep=4 / ip_ratio=1.40 / pb_ratio=1.30 / aq=1:0.90
Language                                 : Japanese
Default                                  : Yes
Forced                                   : No
Matrix coefficients                      : BT.709
Audio #1
ID                                       : 2
Format                                   : Vorbis
Format settings, Floor                   : 1
Codec ID                                 : A_VORBIS
Duration                                 : 2h 42mn
Bit rate mode                            : Variable
Bit rate                                 : 256 Kbps
Channel count                            : 2 channels
Sampling rate                            : 48.0 KHz
Compression mode                         : Lossy
Stream size                              : 297 MiB (8%)
Title                                    : Original
Writing library                          : aoTuV 20110424 (UTC 2011-04-24)
Language                                 : Japanese
Default                                  : No
Forced                                   : No
Audio #2
ID                                       : 3
Format                                   : AAC
Format/Info                              : Advanced Audio Codec
Format profile                           : LC
Codec ID                                 : A_AAC
Duration                                 : 2h 42mn
Channel count                            : 2 channels
Channel positions                        : Front: L R
Sampling rate                            : 48.0 KHz
Compression mode                         : Lossy
Title                                    : AniMedia.Tv
Language                                 : Russian
Default                                  : No
Forced                                   : Yes
Audio #3
ID                                       : 4
Format                                   : AC-3
Format/Info                              : Audio Coding 3
Mode extension                           : CM (complete main)
Format settings, Endianness              : Big
Codec ID                                 : A_AC3
Duration                                 : 2h 42mn
Bit rate mode                            : Constant
Bit rate                                 : 448 Kbps
Channel count                            : 6 channels
Channel positions                        : Front: L C R, Side: L R, LFE
Sampling rate                            : 48.0 KHz
Bit depth                                : 16 bits
Compression mode                         : Lossy
Stream size                              : 520 MiB (14%)
Title                                    : Reanimedia
Language                                 : Russian
Default                                  : Yes
Forced                                   : No
Text #1
ID                                       : 5
Format                                   : ASS
Codec ID                                 : S_TEXT/ASS
Codec ID/Info                            : Advanced Sub Station Alpha
Compression mode                         : Lossless
Title                                    : Полные
Language                                 : Russian
Default                                  : No
Forced                                   : No
Text #2
ID                                       : 6
Format                                   : ASS
Codec ID                                 : S_TEXT/ASS
Codec ID/Info                            : Advanced Sub Station Alpha
Compression mode                         : Lossless
Title                                    : Надписи+караоке
Language                                 : Russian
Default                                  : Yes
Forced                                   : No
-            -Время раздачи: До первых сидов
Other forum [Profile] [PM]
Display posts from previous:    
Reply to topic

The time now is: Today 18:08

All times are GMT + 3 Hours



You cannot post new topics in this forum
You cannot reply to topics in this forum
You cannot edit your posts in this forum
You cannot delete your posts in this forum
You cannot vote in polls in this forum
You cannot attach files in this forum
You cannot download files in this forum