Today is a free download without charge Download

MULTIPASS - Звездная [2013, Rock, Master]

Reply to topic
 
Author
Message

Omen ®

Longevity: 8 years 4 months

Posts: 181087

Торрент-статистика

Post 11-Sep-2013 15:45

[Quote]

MULTIPASS - Звездная
Жанр: Rock
Продолжительность: 6:30
Год выпуска: 2013
Описание:
Клип группы MULTIPASS на песню Звездная.
Доп. информация:
Режиссер: Давлет
В главных ролях: Ольга Шарова, Валерий Златкис, Николай Ротов
Автор сценария: Давлет
Оператор: Андрей Килин
Второй оператор: Кирилл Рекец
Ассистент: Мунавир Хазиев
Перевозки: Грей Макаров
Фотограф: Роман
MULTIPASS: Давлет , Мишон, Умберто, Мераж
Качество: Master
Контейнер: MOV
Видео кодек: H.264
Аудио кодек: PCM
Видео: H.264, 1920x800, 20 Mbps, 25 fps
Аудио: PCM, 1411 kbps, 44100 Hz, 2 ch

Отчёт MediaInfo / BDInfo

GeneralComplete name : /Volumes/Projects/Video Projects/Zvezdnaya/MULTIPASS - Звездная.movFormat : MPEG-4Format profile : QuickTimeCodec ID : qtFile size : 1 006 MiBDuration : 6mn 30sOverall bit rate : 21.6 MbpsComposer : DavletDirector : DavletProducer : DavletContentType : Unknown TypeEncoded date : UTC 2013-09-08 10:07:17Tagged date : UTC 2013-09-08 11:17:37Cover : Yes©TIM : 00:00:00:00©TSC : 25©TSZ : 1
VideoID : 1Format : AVCFormat/Info : Advanced Video CodecFormat profile : [email protected] settings, CABAC : NoFormat settings, ReFrames : 2 framesFormat settings, GOP : M=1, N=12Codec ID : avc1Codec ID/Info : Advanced Video CodingDuration : 6mn 30sBit rate : 20.2 MbpsWidth : 1 920 pixelsHeight : 800 pixelsDisplay aspect ratio : 2.40:1Frame rate mode : ConstantFrame rate : 25.000 fpsColor space : YUVChroma subsampling : 4:2:0Bit depth : 8 bitsScan type : ProgressiveBits/(Pixel*Frame) : 0.525Stream size : 937 MiB (93%)Language : EnglishEncoded date : UTC 2013-09-08 10:07:17Tagged date : UTC 2013-09-08 11:11:44Color primaries : BT.709Transfer characteristics : BT.709Matrix coefficients : BT.709
AudioID : 2Format : PCMFormat settings, Endianness : LittleFormat settings, Sign : SignedCodec ID : sowtDuration : 6mn 30sBit rate mode : ConstantBit rate : 1 411.2 KbpsChannel count : 2 channelsChannel positions : Front: L RSampling rate : 44.1 KHzBit depth : 16 bitsStream size : 65.6 MiB (7%)Language : EnglishEncoded date : UTC 2013-09-08 10:07:17Tagged date : UTC 2013-09-08 11:11:44
OtherID : 4Type : Time codeFormat : QuickTime TCDuration : 6mn 30sTime code of first frame : 00:00:00:00Time code settings : StripedLanguage : EnglishEncoded date : UTC 2013-09-08 11:11:44Tagged date : UTC 2013-09-08 11:11:44
MenuID : 3Codec ID : textDuration : 6mn 3sLanguage : EnglishEncoded date : UTC 2013-09-08 11:11:44Tagged date : UTC 2013-09-08 11:11:44Bit rate mode : VBRSource duration : 360Source frame count : 9Source stream size : 241Frame count : 908700:00:00.000 : Pole00:00:00.040 : Kto-to pridumal00:00:00.080 : Znakomstvo00:00:00.120 : Pole i spalnya00:00:00.160 : Kto-to razbil00:00:00.200 : Mishon Uspokoysa00:00:00.240 : Zhalko00:00:00.280 : Too - Too Pam00:00:00.320 : Zvezdy

Скриншоты

Other forum [Profile] [PM]
Display posts from previous:    
Reply to topic

The time now is: Today 05:30

All times are GMT + 3 Hours



You cannot post new topics in this forum
You cannot reply to topics in this forum
You cannot edit your posts in this forum
You cannot delete your posts in this forum
You cannot vote in polls in this forum
You cannot attach files in this forum
You cannot download files in this forum