Today is a free download without charge Download

Первая скрипка (Дмитрий Бабиченко) [1958 г., мультфильм, DVB-AVC]

Reply to topic
 
Author
Message

Omen ®

Longevity: 7 years 11 months

Posts: 181087

Торрент-статистика

Post 10-Sep-2013 21:09

[Quote]

Первая скрипка
Жанр: мультфильм
Год выпуска: 1958
Продолжительность: 00:20:05
Режиссёр: Дмитрий Бабиченко
Описание: великолепный мультфильм про кузнечика, который очень любил хвататься. Талант без труда не приведет к успеху ...
Доп. информация:

Релиз группы:
Качество видео: DVB
Формат видео: MPEG-TS
Видео: MPEG4 Video (H264), [email protected] (4:3), анаморф, 25 fps, 5000 kbps
Аудио: MPEG Audio, 2 сh, 48 kHz, 192 kbps
Трансляция спутникового канала:

MediaInfo

D:\Первая скрипка. (1958)_DVB by SLuMeP.ts
General #1
ID : 1 (0x1)
Complete name : D:\Первая скрипка. (1958)_DVB by SLuMeP.ts
Format : MPEG-TS
File size : 788 MiB
Duration : 20mn 5s
Overall bit rate : 5 482 Kbps
Video #2271
ID : 2271 (0x8DF)
Menu ID : 1 (0x1)
Format : AVC
Format/Info : Advanced Video Codec
Format profile : [email protected]
Format settings, CABAC : Yes
Format settings, ReFrames : 3 frames
Codec ID : 27
Duration : 20mn 5s
Bit rate : 5 017 Kbps
Width : 720 pixels
Height : 576 pixels
Display aspect ratio : 4:3
Frame rate : 25.000 fps
Standard : Component
Color space : YUV
Chroma subsampling : 4:2:0
Bit depth : 8 bits
Scan type : Interlaced
Scan order : Top Field First
Bits/(Pixel*Frame) : 0.484
Stream size : 721 MiB (92%)
Color primaries : BT.470-6 System B, BT.470-6 System G, BT.601-6 625, BT.1358 625, BT.1700 625 PAL, BT.1700 625 SECAM
Transfer characteristics : BT.470-6 System B, BT.470-6 System G
Matrix coefficients : BT.470-6 System B, BT.470-6 System G, BT.601-6 625, BT.1358 625, BT.1700 625 PAL, BT.1700 625 SECAM, IEC 61966-2-4 601
Audio #2272
ID : 2272 (0x8E0)
Menu ID : 1 (0x1)
Format : MPEG Audio
Format version : Version 1
Format profile : Layer 2
Codec ID : 3
Duration : 20mn 4s
Bit rate mode : Constant
Bit rate : 192 Kbps
Channel(s) : 2 channels
Sampling rate : 48.0 KHz
Compression mode : Lossy
Delay relative to video : -40ms
Stream size : 27.6 MiB (4%)
Language : Russian

Скриншоты

Other forum [Profile] [PM]
Similar theme
Forum Topic Author Torrent Replies Last Post
./templates/default/images/folder_dl.gif Медицина и Здоровье Игорь Платонов и др. | Первая помощь. Что нужно знать каждому (2013) [PDF] moralis
1 | 0

0 | 1356

6

2016-02-02 18:55
moralis Latest
Display posts from previous:    
Reply to topic

The time now is: Today 15:59

All times are GMT + 3 Hours



You cannot post new topics in this forum
You cannot reply to topics in this forum
You cannot edit your posts in this forum
You cannot delete your posts in this forum
You cannot vote in polls in this forum
You cannot attach files in this forum
You cannot download files in this forum