Today is a free download without charge Download

Хроники Риддика (Режис.версия) / The Chronicles of Riddick (Director's Cut) (Дэвид Туи) [2004 г., фантастика, боевик, триллер, приключения, BDRip720p]

Reply to topic
 
Author
Message

Delia ®

Gender:

Longevity: 9 years 6 months

Posts: 1821

Торрент-статистика

Post 22-Sep-2011 22:57

[Quote]

Хроники Риддика The Chronicles of Riddick Год выпуска: 2004
Страна: США
Жанр: фантастика, боевик, триллер, приключения
Продолжительность: 02:14:06
Перевод: Дублированный +многоголосые вставки на режиссёрские места)
Режиссер: Дэвид Туи
Продюссер: Камилль Браун, Вин Дизель, Том Энгелман
Сценарий: Дэвид Туи, Джим Уит, Кен Уит
Бюджет: $105 000 000
Премьера в мире: 3 июня 2004
В ролях: Вин Дизель ,Колм Фиор ,Тэнди Ньютон ,Джуди Денч ,Карл Урбан ,Алекса Давалос ,Лайнас Роуч ,Йорик ван Вагенинген ,Ник Чинланд ,Кит Дэвид
Описание: Последние пять лет Риддик провел в бегах среди забытых миров на задворках галактики, прячась от наемников, назначивших цену за его голову. Теперь беглец оказался на планете Гелион, где живет прогрессивное многонациональное общество, завоеванное лордом Маршалом, фанатиком, решившим поработить человечество армадой своих воинов, некромонгеров. Совершив побег из подземной тюрьмы, где температура колебалась от арктических ночей до вулканических дней, Риддик встречает Кайру, последнюю оставшуюся в живых женщину из раннего периода его жизни. Его попытки освободить себя и Кайру приводят их на борт главного корабля некромонгеров, где ему предстоит столкнуться с лордом Маршалом в апокалиптической битве не на жизнь, а на смерть.
Качество: BDRip720p
Формат: MKV
Видео кодек: H.264
Аудио кодек: AC3
Видео: English, 4218 Кбит/сек, 1280*528 (2,40:1), в 23,976 кадр/сек, AVC ([email protected])
Аудио: Russian, 448 Кбит/сек, 48,0 КГц, 16 бит, 6 канала(ов), AC-3 (дубляж+многоголосые вставки на режиссёрские места)
Аудио:Russian, 448 Кбит/сек, 48,0 КГц, 16 бит, 6 канала(ов), AC-3 Авторский одноголосый (Гоблин)
Отдельно:
320 Кбит/сек, 48,0 КГц, 16 бит, 6 канала(ов), AC-3 ( оригинал)
448 Кбит/сек, 48,0 КГц, 16 бит, 6 канала(ов), AC-3 (многоголосый CP Digital)
448 Кбит/сек, 48,0 КГц, 16 бит, 6 канала(ов), AC-3 (Tycoon)
Субтитры:Русские (Tycoon), Русские (CP Digital) , English ( VobSub )( отдельно)

MI:

Код:
Общее
Уникальный идентификатор         : 250742303285107879522277287358990284742 (0xBCA336058C0C944986C48C1B519A77C6)
Полное имя                       : E:\торрент\The Chronicles of Riddick (2004)BDRip720p\The Chronicles of Riddick(2004)ВDRip720p.mkv
Формат                           : Matroska
Размер файла                     : 4,79 Гбайт
Продолжительность                : 2 ч. 14 м.
Общий поток                      : 5113 Кбит/сек
Дата кодирования                 : UTC 2011-09-22 18:48:18
Программа кодирования            : mkvmerge v4.9.1 ('Ich will') built on Jul 11 2011 23:53:15
Библиотека кодирования           : libebml v1.2.1 + libmatroska v1.1.1
Видео
Идентификатор                    : 1
Формат                           : AVC
Формат/Информация                : Advanced Video Codec
Профиль формата                  : [email protected]
Параметр CABAC формата           : Да
Параметр ReFrames формата        : 10 кадры
Идентификатор кодека             : V_MPEG4/ISO/AVC
Продолжительность                : 2 ч. 14 м.
Битрейт                          : 4218 Кбит/сек
Ширина                           : 1280 пикс.
Высота                           : 528 пикс.
Соотношение сторон               : 2,40:1
Частота кадров                   : 23,976 кадр/сек
Цветовое пространство            : YUV
Подвыборка цветности             : 4:2:0
Битовая глубина                  : 8 бит
Тип развёртки                    : Прогрессивная
Бит/(Пиксели*Кадры)              : 0.260
Размер потока                    : 3,85 Гбайт (80%)
Библиотека кодирования           : x264 core 116 r2074 2641b9e
Настройки программы              : cabac=1 / ref=10 / deblock=1:-2:-2 / analyse=0x3:0x113 / me=umh / subme=9 / psy=1 / psy_rd=1.00:0.15 / mixed_ref=1 / me_range=32 / chroma_me=1 / trellis=2 / 8x8dct=1 / cqm=0 / deadzone=21,11 / fast_pskip=0 / chroma_qp_offset=-3 / threads=6 / sliced_threads=0 / nr=0 / decimate=1 / interlaced=0 / bluray_compat=0 / constrained_intra=0 / bframes=8 / b_pyramid=2 / b_adapt=2 / b_bias=0 / direct=3 / weightb=1 / open_gop=0 / weightp=2 / keyint=250 / keyint_min=24 / scenecut=40 / intra_refresh=0 / rc_lookahead=60 / rc=2pass / mbtree=1 / bitrate=4218 / ratetol=1.0 / qcomp=0.80 / qpmin=0 / qpmax=69 / qpstep=4 / cplxblur=20.0 / qblur=0.5 / ip_ratio=1.40 / aq=1:1.00
Язык                             : English
Аудио #1
Идентификатор                    : 2
Формат                           : AC-3
Формат/Информация                : Audio Coding 3
Расширение режима                : CM (complete main)
Идентификатор кодека             : A_AC3
Продолжительность                : 2 ч. 14 м.
Вид битрейта                     : Постоянный
Битрейт                          : 448 Кбит/сек
Канал(ы)                         : 6 канала(ов)
Расположение каналов             : Front: L C R, Side: L R, LFE
Частота                          : 48,0 КГц
Битовая глубина                  : 16 бит
Метод сжатия                     : С потерями
Размер потока                    : 430 Мбайт (9%)
Язык                             : Russian
Аудио #2
Идентификатор                    : 3
Формат                           : AC-3
Формат/Информация                : Audio Coding 3
Расширение режима                : CM (complete main)
Идентификатор кодека             : A_AC3
Продолжительность                : 2 ч. 14 м.
Вид битрейта                     : Постоянный
Битрейт                          : 448 Кбит/сек
Канал(ы)                         : 6 канала(ов)
Расположение каналов             : Front: L C R, Side: L R, LFE
Частота                          : 48,0 КГц
Битовая глубина                  : 16 бит
Метод сжатия                     : С потерями
Задержка видео                   : 13 мс.
Размер потока                    : 430 Мбайт (9%)
Язык                             : Russian
Меню
00:00:00.000                     : en:Chapter 01
00:02:39.325                     : en:Chapter 02
00:07:05.508                     : en:Chapter 03
00:11:25.643                     : en:Chapter 04
00:15:31.805                     : en:Chapter 05
00:20:58.757                     : en:Chapter 06
00:27:11.713                     : en:Chapter 07
00:31:27.302                     : en:Chapter 08
00:38:52.330                     : en:Chapter 09
00:43:32.568                     : en:Chapter 10
00:47:18.418                     : en:Chapter 11
00:53:38.340                     : en:Chapter 12
01:01:36.818                     : en:Chapter 13
01:04:29.824                     : en:Chapter 14
01:08:45.579                     : en:Chapter 15
01:11:43.173                     : en:Chapter 16
01:17:19.051                     : en:Chapter 17
01:22:50.006                     : en:Chapter 18
01:29:05.131                     : en:Chapter 19
01:32:42.473                     : en:Chapter 20
01:41:13.650                     : en:Chapter 21
01:44:28.220                     : en:Chapter 22
01:48:15.197                     : en:Chapter 23
01:53:18.583                     : en:Chapter 24
01:57:02.682                     : en:Chapter 25
02:00:00.693                     : en:Chapter 26
02:03:05.753                     : en:Chapter 27
02:04:08.065                     : en:Chapter 28
02:14:05.787                     : en:Chapter 29

Скриншоты

                   

_________________
Человек – это канат, натянутый между животным и сверхчеловеком, – канат над пропастью.
В человеке ценно то, что он мост, а не цель. Фридрих Ницше
Other forum [Profile] [PM]
Similar theme
Forum Topic Author Torrent Replies Last Post
./templates/default/images/folder_dl.gif Новинки (BD|HDTV|DVD) Хроники хищных городов / Mortal Engines (Кристиан Риверс) [2018 г., Фантастика, фэнтези, боевик, триллер, приключения, WEBRip 1080p] | DUB (Чистый звук) Theseus
2 | 0

0 | 799

14

2019-01-26 02:01
Theseus Latest
./templates/default/images/folder_dl.gif Новинки (HD|DVD|BD|WEB|TV|SAT|PDTV|-Rip) Хроники хищных городов / Mortal Engines (Кристиан Риверс) [2018 г., Фантастика, фэнтези, боевик, триллер, приключения, WEB-DLRip-AVC] | DUB [iTunes] Theseus
1 | 0

0 | 635

8

2019-01-31 17:19
Theseus Latest
Display posts from previous:    
Reply to topic

The time now is: Today 18:14

All times are GMT + 3 Hours



You cannot post new topics in this forum
You cannot reply to topics in this forum
You cannot edit your posts in this forum
You cannot delete your posts in this forum
You cannot vote in polls in this forum
You cannot attach files in this forum
You cannot download files in this forum