Today is a free download without charge Download

Bring Me The Horizon - Go To Hell, For Heaven's Sake [2013, PostHardcore/Cristian, HDCamRip]

Reply to topic
 
Author
Message

Omen ®

Longevity: 8 years 3 months

Posts: 181087

Торрент-статистика

Post 10-Sep-2013 08:53

[Quote]

Bring Me The Horizon - Go To Hell, For Heaven's Sake
Жанр: Christian
Продолжительность: 4mn 10s 880ms
Год выпуска: 2013
Описание: Bring Me The Horizon - Go To Hell, For Heaven's Sake
Качество: HDCamRip
Контейнер: MKV
Видео кодек: H.264
Аудио кодек: FLAC
Видео: AVC at 1 985 Kbps 1280 x 720 (1.778) at 25.000 fps
Аудио: FLAC at 981 Kbps 2 channels, 44.1 KHz
Cпектр:

Отчёт MediaInfo / BDInfo

Complete name : J:\MUSIC VIDEO\ALTERNATIVE\Bring Me The Horizon\BRING ME THE HORIZON - Music Videos\14 Bring Me The Horizon - Go To Hell, For Heaven_s Sake HD 2013.mkvFormat : MatroskaFormat version : Version 2File size : 88.8 MiBDuration : 4mn 10sOverall bit rate mode : VariableOverall bit rate : 2 968 KbpsEncoded date : UTC 2013-09-09 19:18:13Writing application : mkvmerge v5.2.0 ('I can't explain') built on Dec 18 2011 18:12:03Writing library : libebml v1.2.3 + libmatroska v1.3.0
VideoID : 1Format : AVCFormat/Info : Advanced Video CodecFormat profile : [email protected] settings, CABAC : YesFormat settings, ReFrames : 1 frameCodec ID : avc1Codec ID/Info : Advanced Video CodingDuration : 4mn 10sBit rate : 1 985 KbpsMaximum bit rate : 6 243 KbpsWidth : 1 280 pixelsHeight : 720 pixelsDisplay aspect ratio : 16:9Frame rate mode : ConstantFrame rate : 25.000 fpsColor space : YUVChroma subsampling : 4:2:0Bit depth : 8 bitsScan type : ProgressiveBits/(Pixel*Frame) : 0.086Stream size : 59.4 MiB (91%)Tagged date : UTC 2013-09-05 08:31:35
AudioFormat : FLACFormat/Info : Free Lossless Audio CodecDuration : 4mn 10sBit rate mode : VariableBit rate : 981 KbpsChannel(s) : 2 channelsSampling rate : 44.1 KHzBit depth : 16 bitsStream size : 29.3 MiB (100%)Writing library : libFLAC 20080709 (UTC 2008-07-09)

Скриншоты

Other forum [Profile] [PM]
Display posts from previous:    
Reply to topic

The time now is: Today 13:17

All times are GMT + 3 Hours



You cannot post new topics in this forum
You cannot reply to topics in this forum
You cannot edit your posts in this forum
You cannot delete your posts in this forum
You cannot vote in polls in this forum
You cannot attach files in this forum
You cannot download files in this forum