Сегодня идет свободное скачивание без начисления Download

Пятница 13 / Friday the 13th / Анталогия из 9 фильмов (1980-1993) 9xDVD5

Ответить на тему
 
Автор
Сообщение

Omen ®

Стаж: 6 лет

Сообщений: 184329

Торрент-статистика

Пост 22-Сен-2011 14:27

[Цитировать]


Пятница 13 / Friday the 13th / Анталогия из 9 фильмов (1980-1993) 9xDVD5- Русское название: Пятница 13
Оригинальное название: Friday the 13th
Год выпуска: 1980-1993
Жанр: Ужасы, Триллер-Состав сборника:
1. «Пятница, 13-е» (1980)
2. «Пятница, 13-е - Часть 2» (1981)
3. «Пятница, 13-е - Часть 3 (3D)» (1982)
4. «Пятница, 13-е: Последняя глава» (1984)
5. «Пятница, 13-е - Часть V: Новое начало» (1985)
6. «Пятница, 13-е - Часть VI: Джейсон жив» (1986)
7. «Пятница, 13-е - Часть VII: Новая кровь» (1988)
8. «Пятница, 13-е - Часть VIII: Джейсон штурмует Манхэттен» (1989)
9. «Джейсон отправляется в ад: Последняя пятница» (1993)
-Качество видео: DVD5
Видео: NTSC 16:9 (720x480) VBR, Auto Pan&Scan
Битрейт: ~5 500 Kbps-Аудио: Audio #1:English, AC3, 2/0ch, 192Kbps, Delay 0 mSec
Audio #2: Francais, AC3, 2/0ch, 192Kbps, Delay 0 mSec
Audio #3: Russian, AC3, 2/0ch, 192Kbps, Delay 0 mSec-Перевод: Авторский, одноголосый (Юрий Живов)-«Пятница, 13-е» — популярный американский киносериал фильмов ужасов. Создателем сериала является американский режиссёр Шон Каннингем.
Главный злодей сериала Джейсон Вурхис утонул в одиннадцатилетнем возрасте в озере, когда отдыхал в летнем лагере «Хрустальное озеро». Роль главного героя фильмов — Джейсона Вурхиса — сверхъестественного серийного убийцы в хоккейной маске, исполнило множество актёров. Вурхис оживает в день своей смерти — а именно в пятницу, 13-го — и начинает всем мстить.
По мотивам фильмов было выпущено множество романов и комиксов, а также большое количество товаров с атрибутикой сериала. Хотя критика принимала фильмы достаточно прохладно, у сериала появилось много своих поклонников, благодаря интересу которых съёмки новых серий продолжаются. Хоккейная маска стала одним из самых узнаваемых атрибутов в мировом кинематографе.
-

Пятница 13

-Русское название: Пятница 13
Оригинальное название: Friday the 13th
Год выпуска: 1980-Описание фильма:
Их предупреждали… Их прокляли… В пятницу, 13-ого… их уже ничего не спасет… Уютный лагерь «Хрустальное озеро» вновь открывается! Вожатые ожидают летнюю смену, приготовив для юных гостей увлекательные мероприятия и забавные игры.-Режиссер: Шон С. Каннингэм / Sean S. Cunningham
Актеры: Бетси Палмер / Betsy Palmer, Эдриэнн Кинг / Adrienne King, Джаннин Тейлор / Jeannine Taylor, Робби Морган / Robbi Morgan, Кевин Бейкон / Kevin Bacon, Гарри Кросби / Harry Crosby, Лори Бартрэм / Laurie Bartram, Марк Нельсон / Mark Nelson, Питер Броувер / Peter Brouwer, Рекс Эверхарт / Rex Everhart
Продолжительность: 01:35:27
Перевод: Авторский, одноголосый (Юрий Живов)
Субтитры: Английские, испанские, французские- -Скриншоты:
       -

MediaInfo

Код:
General
Complete name                    : Z:\Torrents\Pyatnica.13.1980-1993.9xDVD-5\1\VTS_01_1.VOB
Format                           : MPEG-PS
File size                        : 1 024 MiB
Duration                         : 23mn 0s
Overall bit rate                 : 6 221 Kbps
Video
ID                               : 224 (0xE0)
Format                           : MPEG Video
Format version                   : Version 2
Format profile                   : [email protected]
Format settings, BVOP            : Yes
Format settings, Matrix          : Default
Duration                         : 23mn 0s
Bit rate mode                    : Variable
Bit rate                         : 5 521 Kbps
Nominal bit rate                 : 9 800 Kbps
Width                            : 720 pixels
Height                           : 480 pixels
Display aspect ratio             : 16:9
Frame rate                       : 23.976 fps
Standard                         : Component
Color space                      : YUV
Chroma subsampling               : 4:2:0
Bit depth                        : 8 bits
Scan type                        : Progressive
Scan order                       : 2:3 Pulldown
Compression mode                 : Lossy
Bits/(Pixel*Frame)               : 0.666
Stream size                      : 909 MiB (89%)
Audio #1
ID                               : 128 (0x80)
Format                           : AC-3
Format/Info                      : Audio Coding 3
Mode extension                   : CM (complete main)
Duration                         : 23mn 0s
Bit rate mode                    : Constant
Bit rate                         : 192 Kbps
Channel(s)                       : 2 channels
Channel positions                : Front: L R
Sampling rate                    : 48.0 KHz
Bit depth                        : 16 bits
Compression mode                 : Lossy
Stream size                      : 31.6 MiB (3%)
Audio #2
ID                               : 129 (0x81)
Format                           : AC-3
Format/Info                      : Audio Coding 3
Mode extension                   : CM (complete main)
Duration                         : 23mn 0s
Bit rate mode                    : Constant
Bit rate                         : 192 Kbps
Channel(s)                       : 2 channels
Channel positions                : Front: L R
Sampling rate                    : 48.0 KHz
Bit depth                        : 16 bits
Compression mode                 : Lossy
Stream size                      : 31.6 MiB (3%)
Audio #3
ID                               : 130 (0x82)
Format                           : AC-3
Format/Info                      : Audio Coding 3
Mode extension                   : CM (complete main)
Duration                         : 23mn 0s
Bit rate mode                    : Constant
Bit rate                         : 192 Kbps
Channel(s)                       : 2 channels
Channel positions                : Front: L R
Sampling rate                    : 48.0 KHz
Bit depth                        : 16 bits
Compression mode                 : Lossy
Stream size                      : 31.6 MiB (3%)
Text #1
ID                               : 32 (0x20)
Format                           : RLE
Format/Info                      : Run-length encoding
Duration                         : 22mn 57s
Text #2
ID                               : 33 (0x21)
Format                           : RLE
Format/Info                      : Run-length encoding
Duration                         : 22mn 57s
Text #3
ID                               : 34 (0x22)
Format                           : RLE
Format/Info                      : Run-length encoding
Duration                         : 22mn 57s
Text #4
ID                               : 35 (0x23)
Format                           : RLE
Format/Info                      : Run-length encoding
Duration                         : 22mn 57s
Text #5
ID                               : 36 (0x24)
Format                           : RLE
Format/Info                      : Run-length encoding
Text #6
ID                               : 37 (0x25)
Format                           : RLE
Format/Info                      : Run-length encoding
Text #7
ID                               : 224 (0xE0)-DVD-2
Format                           : EIA-608
Muxing mode                      : DVD-Video
Muxing mode, more info           : Muxed in Video #1
Stream size                      : 0.00 Byte (0%)
Menu
-

DVDInfo

Код:
Title: ����� ���
Size: 4.15 Gb ( 4 347 336 KBytes ) - DVD-5
Enabled regions: 1, 2, 3, 4, 5, 6, 7, 8
VTS_01 :
  Play Length: 01:35:02
  Video: NTSC 16:9 (720x480) VBR, Auto Pan&Scan
  Audio:
      English (Dolby AC3, 2 ch)
      Francais (Dolby AC3, 2 ch)
      Russian (Dolby AC3, 2 ch)
  Subtitles:
      English
      Espanol
      Francais
Menu Video:
      NTSC 4:3 (720x480) VBR
      Auto Pan&Scan, Auto Letterboxed
Menu English Language Unit :
      Root Menu
      Subpicture Menu
      Audio Menu
      Angle menu
      Chapter (PTT) Menu

Пятница 13, Часть 2

Русское название: Пятница 13, Часть 2
Оригинальное название: Friday The 13th, Part 2
Год выпуска: 1981
Жанр: Ужасы, Триллер-Описание фильма:
Несмотря на предупреждения не отдыхать на озере, где случились страшные убийства в первой "Пятнице", сексуально озабоченная молодежь валом прет в летний лагерь. Ну а там их опять различными способами умерщвляет в самых неожиданных местах за самыми пикантными занятиями. Если вам понравился первый фильм, то вы посмотрите и все остальные.-Режиссер: Стив Майнер /Steve Miner
Актеры: Бетси Палмер /Betsy Palmer/, Эми Стил /Amy Steel/, Джон Фьюри /John Furey/, Эдриенн Кинг /Adrienne King/, Керстен Бэйкер /Kirsten Baker/, Жиллетт Уоррингтон /Warrington Gillette/, Стю Чарно /Stu Charno/-Продолжительность: 01:26:59- -Скриншоты:        -

DVDInfo

Код:
Title: ����� ���
Size: 3.98 Gb ( 4 177 316 KBytes ) - DVD-5
Enabled regions: 1, 2, 3, 4, 5, 6, 7, 8
VTS_01 :
  Play Length: 01:26:53
  Video: NTSC 16:9 (720x480) VBR, Auto Pan&Scan
  Audio:
      English (Dolby AC3, 2 ch)
      Francais (Dolby AC3, 2 ch)
      Russian (Dolby AC3, 2 ch)
  Subtitles:
      English
      Espanol
      Francais
Menu Video:
      NTSC 16:9 (720x480) VBR
      Auto Letterboxed
Menu Subtitles:
      Not specified
Menu English Language Unit :
      Root Menu
-

MediaInfo

[code]Общее
Полное имя : Z:\Torrents\Pyatnica.13.1980-1993.9xDVD-5\2\VTS_01_1.VOB
Формат : MPEG-PS
Размер файла : 1024 Мбайт
Продолжительность : 21 м.
Режим общего битрейта : Переменный
Общий поток : 6731 Кбит/сек
Видео
Идентификатор : 224 (0xE0)
Формат : MPEG Video
Версия формата : Version 2
Профиль формата : [email protected]
Параметр BVOP формата : Да
Параметр матрицы формата : Выборочная
Продолжительность : 21 м.
Вид битрейта : Переменный
Битрейт : 6021 Кбит/сек
Максимальный битрейт : 9800 Кбит/сек
Ширина : 720 пикселей
Высота : 480 пикселей
Соотношение сторон : 16:9
Частота кадров : 23,976 кадра/сек
Стандарт вещания : Component
Цветовое пространство


Последний раз редактировалось: Omen (2011-09-22 21:27), всего редактировалось 3 раз(а)
Вне форума [Профиль] [ЛС]
Показать сообщения:    
Ответить на тему

Текущее время: Сегодня 16:03

Часовой пояс: GMT + 3



Вы не можете начинать темы
Вы не можете отвечать на сообщения
Вы не можете редактировать свои сообщения
Вы не можете удалять свои сообщения
Вы не можете голосовать в опросах
Вы не можете прикреплять файлы к сообщениям
Вы не можете скачивать файлы