Today is a free download without charge Download

Queens Of The Stone Age - Live in Later with Jools Holland (14.05.2013) [2013, Alternative Rock / Hard Rock, HDTV 1080i]

Reply to topic
 
Author
Message

Omen ®

Longevity: 8 years 3 months

Posts: 181087

Торрент-статистика

Post 09-Sep-2013 20:28

[Quote]

Queens Of The Stone Age - Live in Later with Jools Holland (14.05.2013)
Жанр: Alternative Rock / Hard Rock
Продолжительность: 00:15:54
Год выпуска: 2013
Треклист:
01. I Sat by the Ocean
02. If I had a Tail
03. Interview
04. My God is the Sun
Качество: HDTV 1080i
Контейнер: TS
Видео кодек: H.264
Аудио кодек: AC3
Видео: H.264, 1920x1080, 10.4 Mbps, 25 fps
Аудио: AC3, 384 Kbps, 48 KHz, 5.1

Отчёт MediaInfo / BDInfo

ОбщееИдентификатор : 1 (0x1)Полное имя : E:\zDownload\Queens Of The Stone Age - Later with Jools Holland - Extended Show - 14th May 2013 [1080i].tsФормат : MPEG-TSРазмер файла : 1,26 ГбайтПродолжительность : 15 м.Общий поток : 11,3 Мбит/сек
ВидеоИдентификатор : 5500 (0x157C)Идентификатор меню : 1 (0x1)Формат : AVCФормат/Информация : Advanced Video CodecПрофиль формата : [email protected]Параметр CABAC формата : ДаПараметр ReFrames формата : 4 кадраИдентификатор кодека : 27Продолжительность : 15 м.Битрейт : 10,4 Мбит/секШирина : 1920 пикселейВысота : 1080 пикселейСоотношение сторон : 16:9Частота кадров : 25,000 кадров/секЦветовое пространство : YUVСубдискретизация насыщенности : 4:2:0Битовая глубина : 8 битТип развёртки : MBAFFПорядок развёртки : Верхнее поле первоеБит/(Пиксели*Кадры) : 0.200Размер потока : 1,15 Гбайт (92%)Основные цвета : BT.709Характеристики трансфера : BT.709Коэффициенты матрицы : BT.709
АудиоИдентификатор : 5501 (0x157D)Идентификатор меню : 1 (0x1)Формат : AC-3Формат/Информация : Audio Coding 3Расширение режима : CM (complete main)Параметр Endianness формата : BigИдентификатор кодека : 6Продолжительность : 15 м.Вид битрейта : ПостоянныйБитрейт : 384 Кбит/секКаналы : 6 каналовРасположение каналов : Front: L C R, Side: L R, LFEЧастота : 48,0 КГцБитовая глубина : 16 битМетод сжатия : С потерямиРазмер потока : 43,7 Мбайт (3%)Язык : English

Скриншоты



Other forum [Profile] [PM]
Display posts from previous:    
Reply to topic

The time now is: Today 10:00

All times are GMT + 3 Hours



You cannot post new topics in this forum
You cannot reply to topics in this forum
You cannot edit your posts in this forum
You cannot delete your posts in this forum
You cannot vote in polls in this forum
You cannot attach files in this forum
You cannot download files in this forum