Today is a free download without charge Download

Черная Дыра (Режисcерская версия) / Pitch Black (Director's Cut) (Дэвид Туи) [2000 г., фантастика, боевик, триллер, BDRip720p]

Reply to topic
 
Author
Message

Delia ®

Gender:

Longevity: 9 years 6 months

Posts: 1821

Торрент-статистика

Post 22-Sep-2011 09:08

[Quote]

Черная ДыраPitch Black Год выпуска: 2000
Страна: США
Жанр: фантастика, боевик, триллер
Продолжительность: 01:51:55
Перевод: Профессиональный (многоголосый, закадровый)
Режиссер: Дэвид Туи
Продюссер: Том Энгелман, Тед Филд, Скотт Крупф
Сценарий: Джим Уит, Кен Уит, Дэвид Туи
Бюджет: $23 000 000
Премьера в мире: 18 февраля 2000
В ролях: Вин Дизель, Рада Митчел, Коул Хаузер, Кит Дэвид, Льюис Фитц-Геральд, Клаудия Блэк, Джон Мур, Саймон Бурк, Лес Чэнтери, Рик Андерсон, Вик Уилсон, Анджела Макин, Питер Чианг
Описание: В недалеком будущем космический корабль терпит бедствие, в результате чего совершает вынужденную посадку на отдаленной планете. Но в результате такой посадки погибает командир корабля, часть команды и большинство пассажиров.Оставшиеся в живых оказываются одни на жуткой и безжизненной планете. Первое, что бросается в глаза — это то, что планета имеет три солнца, из-за чего все живое погибает в этой пустыне. Но как только планета погружается в темноту, появляются какие-то странные существа...
Качество: BDRip720p
Формат: MKV
Видео кодек: H.264
Аудио кодек: AC3
Видео: English, 4697 Кбит/сек, 1280*544 (2,35:1), в 23,976 кадр/сек, AVC ([email protected])
Аудио: Russian, 448 Кбит/сек, 48,0 КГц, 16 бит, 6 канала(ов), AC-3 (
Аудио:448 Кбит/сек, 48,0 КГц, 16 бит, 6 канала(ов), AC-3 (Авторский одноголосый (Гоблин)
Отдельно:
Аудио:448 Кбит/сек, 48,0 КГц, 16 бит, 6 канала(ов), AC-3 (Живов)
Аудио:320 Кбит/сек, 48,0 КГц, 16 бит, 6 канала(ов), AC-3 ( оригинал)
Субтитры:Русские, английские (srt)

MI:

Код:
Общее
Уникальный идентификатор         : 220579161426435571343835200180863983929 (0xA5F2004F4AC0264F8FB5740369996139)
Полное имя                       : E:\торрент\Chernaya.dyra.2000.BDrip720p\Chernaya.dyra.2000.BDRip720p.mkv
Формат                           : Matroska
Размер файла                     : 4,37 Гбайт
Продолжительность                : 1 ч. 51 м.
Общий поток                      : 5592 Кбит/сек
Дата кодирования                 : UTC 2011-09-22 05:02:14
Программа кодирования            : mkvmerge v4.9.1 ('Ich will') built on Jul 11 2011 23:53:15
Библиотека кодирования           : libebml v1.2.1 + libmatroska v1.1.1
Видео
Идентификатор                    : 1
Формат                           : AVC
Формат/Информация                : Advanced Video Codec
Профиль формата                  : [email protected]
Параметр CABAC формата           : Да
Параметр ReFrames формата        : 10 кадры
Идентификатор кодека             : V_MPEG4/ISO/AVC
Продолжительность                : 1 ч. 51 м.
Битрейт                          : 4697 Кбит/сек
Ширина                           : 1280 пикс.
Высота                           : 544 пикс.
Соотношение сторон               : 2,35:1
Частота кадров                   : 23,976 кадр/сек
Цветовое пространство            : YUV
Подвыборка цветности             : 4:2:0
Битовая глубина                  : 8 бит
Тип развёртки                    : Прогрессивная
Бит/(Пиксели*Кадры)              : 0.281
Размер потока                    : 3,58 Гбайт (82%)
Библиотека кодирования           : x264 core 116 r2074 2641b9e
Настройки программы              : cabac=1 / ref=10 / deblock=1:-3:-3 / analyse=0x3:0x113 / me=umh / subme=9 / psy=1 / psy_rd=1.00:0.15 / mixed_ref=1 / me_range=24 / chroma_me=1 / trellis=2 / 8x8dct=1 / cqm=0 / deadzone=21,11 / fast_pskip=0 / chroma_qp_offset=-3 / threads=6 / sliced_threads=0 / nr=0 / decimate=1 / interlaced=0 / bluray_compat=0 / constrained_intra=0 / bframes=8 / b_pyramid=2 / b_adapt=2 / b_bias=0 / direct=3 / weightb=1 / open_gop=0 / weightp=2 / keyint=250 / keyint_min=24 / scenecut=40 / intra_refresh=0 / rc_lookahead=60 / rc=2pass / mbtree=1 / bitrate=4697 / ratetol=1.0 / qcomp=0.60 / qpmin=0 / qpmax=69 / qpstep=4 / cplxblur=20.0 / qblur=0.5 / ip_ratio=1.40 / aq=1:1.00
Язык                             : English
Аудио #1
Идентификатор                    : 2
Формат                           : AC-3
Формат/Информация                : Audio Coding 3
Расширение режима                : CM (complete main)
Идентификатор кодека             : A_AC3
Продолжительность                : 1 ч. 51 м.
Вид битрейта                     : Постоянный
Битрейт                          : 448 Кбит/сек
Канал(ы)                         : 6 канала(ов)
Расположение каналов             : Front: L C R, Side: L R, LFE
Частота                          : 48,0 КГц
Битовая глубина                  : 16 бит
Метод сжатия                     : С потерями
Размер потока                    : 359 Мбайт (8%)
Язык                             : Russian
Аудио #2
Идентификатор                    : 3
Формат                           : AC-3
Формат/Информация                : Audio Coding 3
Расширение режима                : CM (complete main)
Идентификатор кодека             : A_AC3
Продолжительность                : 1 ч. 51 м.
Вид битрейта                     : Постоянный
Битрейт                          : 448 Кбит/сек
Канал(ы)                         : 6 канала(ов)
Расположение каналов             : Front: L C R, Side: L R, LFE
Частота                          : 48,0 КГц
Битовая глубина                  : 16 бит
Метод сжатия                     : С потерями
Размер потока                    : 359 Мбайт (8%)
Язык                             : Russian

Скриншоты

                 

_________________
Человек – это канат, натянутый между животным и сверхчеловеком, – канат над пропастью.
В человеке ценно то, что он мост, а не цель. Фридрих Ницше
Other forum [Profile] [PM]
Display posts from previous:    
Reply to topic

The time now is: Today 00:06

All times are GMT + 3 Hours



You cannot post new topics in this forum
You cannot reply to topics in this forum
You cannot edit your posts in this forum
You cannot delete your posts in this forum
You cannot vote in polls in this forum
You cannot attach files in this forum
You cannot download files in this forum