Today is a free download without charge Download

Очень старый человек с огромными крыльями (Олег Белоусов) [1990, СССР, рисованный, короткометражка, экранизация, TVRip]

Reply to topic
 
Author
Message

Omen ®

Longevity: 7 years 11 months

Posts: 181087

Торрент-статистика

Post 09-Sep-2013 00:01

[Quote]

Очень старый человек с огромными крыльями
Страна: СССР, Беларусьфильм
Жанр: для взрослых, рисованный, короткометражка, экранизация
Год выпуска: 1990
Продолжительность: 00:14:00-Перевод: Не требуется
Cубтитры: нет
Оригинальная аудиодорожка: русский-Режиссер: Олег Белоусов-Описание:
Мультипликационный фильм по мотивам одноименной повести Габриэля Гарсиа Маркеса. Несколько дней идёт дождь, всюду сырость и зловоние в доме, ещё болезни одолевают. Всё вокруг сделалось серым и мрачным: перемешались море и облака, грязным стал пляж. Даже днём из-за дождя свет был тусклым. Возле дома, обнаружился человек, который упал и не двигался… он был старый, очень очень старый…
Качество видео: TVRip
Формат видео: AVI
Видео: 720x544 (1.32:1), 25 fps, XviD Final 1.0 (build 34) ~2161 kbps avg, 0.22 bit/pixel
Аудио: 48 kHz, MPEG Layer 3, 2 ch, ~128.00 kbps avg

MediaInfo

Format : AVI
Format/Info : Audio Video Interleave
File size : 239 MiB
Duration : 14mn 32s
Overall bit rate : 2 300 Kbps
Writing application : VirtualDubMod 1.5.4.1 (build 2178/release)
Writing library : VirtualDubMod build 2178/release
Video
ID : 0
Format : MPEG-4 Visual
Format profile : Advanced [email protected]
Format settings, BVOP : 1
Format settings, QPel : No
Format settings, GMC : No warppoints
Format settings, Matrix : Custom
Codec ID : XVID
Codec ID/Hint : XviD
Duration : 14mn 32s
Bit rate : 2 162 Kbps
Width : 720 pixels
Height : 544 pixels
Display aspect ratio : 4:3
Frame rate : 25.000 fps
Color space : YUV
Chroma subsampling : 4:2:0
Bit depth : 8 bits
Scan type : Progressive
Compression mode : Lossy
Bits/(Pixel*Frame) : 0.221
Stream size : 225 MiB (94%)
Writing library : XviD 1.0.0 (UTC 2004-05-09)
Audio
ID : 1
Format : MPEG Audio
Format version : Version 1
Format profile : Layer 3
Mode : Joint stereo
Mode extension : MS Stereo
Codec ID : 55
Codec ID/Hint : MP3
Duration : 14mn 32s
Bit rate mode : Constant
Bit rate : 128 Kbps
Channel(s) : 2 channels
Sampling rate : 48.0 KHz
Compression mode : Lossy
Stream size : 13.3 MiB (6%)
Alignment : Aligned on interleaves
Interleave, duration : 40 ms (1.00 video frame)
Interleave, preload duration : 504 ms

Скриншот c названием фильма

Скриншоты

Other forum [Profile] [PM]
Display posts from previous:    
Reply to topic

The time now is: Today 19:17

All times are GMT + 3 Hours



You cannot post new topics in this forum
You cannot reply to topics in this forum
You cannot edit your posts in this forum
You cannot delete your posts in this forum
You cannot vote in polls in this forum
You cannot attach files in this forum
You cannot download files in this forum