Today is a free download without charge Download

Discovery: Совершенно секретно. Тайны мировых спецслужб / Secrets Of. Foreign Special OPS (2012) SATRip

Reply to topic
 
Author
Message

UndegraundMen ®

Longevity: 7 years 7 months

Posts: 25145

Торрент-статистика

Post 08-Sep-2013 05:44

[Quote]

Discovery: Совершенно секретно. Тайны мировых спецслужб / Secrets Of. Foreign Special OPS (2012) SATRip - Режиссер / Телекомпания: Discovery
Русское название: Совершенно секретно. Тайны мировых спецслужб
Оригинальное название: Secrets Of. Foreign Special OPS
Год выпуска: 2012
Жанр: Документальный, спецназ, история
Выпущено: Великобритания, Discovery Channel
Описание:
Военные подразделения спецназначения - мощное оружие для каждой страны. Российский спецназ, британская САС, американская «Дельта», израильский спецназ — в каждом государстве есть свои элитные войска. В этом фильме бывшие сотрудники раскроют некоторые секреты своего таинственного мира...
Режиссёр: Eric Katzenberg
Текст читал: Павел Гимнис
Озвучено: Студия Кирилица
Перевод: Одноголосый закадровый
Продолжительность: ~ 00:43:29
Видеокодек: DviX
Битрейт видео: ~1554 kb/s
Размер кадра: 704 x 400
Качество видео: SATRip
Аудиокодек: MP3, 2ch.
Битрейт аудио: 128 kb/s

MediaInfo

Формат : AVI
Формат/Информация : Audio Video Interleave
Размер файла : 526 Мбайт
Продолжительность : 43 м.
Общий поток : 1691 Кбит/сек
Библиотека кодирования : Boilsoft Joiner build 2411/release
Видео
Идентификатор : 0
Формат : MPEG-4 Visual
Профиль формата : Advanced [email protected]
Параметр BVOP формата : 2
Параметр QPel формата : Нет
Параметр GMC формата : Без точки перехода
Параметр матрицы формата : Default (MPEG)
Идентификатор кодека : DX50
Идентификатор кодека/Подсказка : DivX 5
Продолжительность : 43 м.
Битрейт : 1554 Кбит/сек
Ширина : 704 пикселя
Высота : 400 пикселей
Соотношение сторон : 16:9
Частота кадров : 25,000 кадров/сек
Цветовое пространство : YUV
Субдискретизация насыщенности : 4:2:0
Битовая глубина : 8 бит
Тип развёртки : Прогрессивная
Метод сжатия : С потерями
Бит/(Пиксели*Кадры) : 0.221
Размер потока : 483 Мбайт (92%)
Библиотека кодирования : XviD 73
Аудио
Идентификатор : 1
Формат : MPEG Audio
Версия формата : Version 1
Профиль формата : Layer 3
Идентификатор кодека : 55
Идентификатор кодека/Подсказка : MP3
Продолжительность : 43 м.
Вид битрейта : Постоянный
Битрейт : 128 Кбит/сек
Каналы : 2 канала
Частота : 44,1 КГц
Метод сжатия : С потерями
Размер потока : 39,8 Мбайт (8%)
Выравнивание : Разделение по промежуткам
Продолжительность промежутка : 40 мс. (1,00 видеокадр)
Время предзагрузки промежутка : 500 мс.
Библиотека кодирования : LAME3.99r
Настройки программы : -m s -V 4 -q 2 -lowpass 17 -b 128
Скриншоты:                    Время раздачи: 24/7. До первых 5 скачавших.
Rip by alf62
Other forum [Profile] [PM]
Display posts from previous:    
Reply to topic

The time now is: Today 18:09

All times are GMT + 3 Hours



You cannot post new topics in this forum
You cannot reply to topics in this forum
You cannot edit your posts in this forum
You cannot delete your posts in this forum
You cannot vote in polls in this forum
You cannot attach files in this forum
You cannot download files in this forum