Today is a free download without charge Download

Discovery: Ричард Хаммонд. Путешествие к центру Земли / Richard Hammond\'s Journey to ... (2011) SATRip

Reply to topic
 
Author
Message

UndegraundMen ®

Longevity: 7 years 7 months

Posts: 25145

Торрент-статистика

Post 08-Sep-2013 05:44

[Quote]

Discovery: Ричард Хаммонд. Путешествие к центру Земли / Richard Hammond's Journey to ... (2011) SATRip - Режиссер / Телекомпания: BBC & Моя планета
Русское название: Ричард Хаммонд. Путешествие к центру Земли
Оригинальное название: Richard Hammond's Journey to ...
Год выпуска: 2011
Жанр: Документальный, научно-познавательный, научная фантастика, псевдоистория
Выпущено: Великобритания, BBC Scotland, Discovery Channel
Описание:
С помощью современных компьютерных технологий Ричард Хаммонд показывает, как образуются вулканы и почему происходят землетрясения. Мы поймем, почему бриллианты действительно вечные и как черепахи используют энергию Земли.
Содержание:
1. Путешествие к центру Земли / The Centre of the Planet
2. Путешествие на дно океана / The Bottom of the Ocean
Режиссёр: Ник Шоолинжин-Джордан, Майк Сли
Актёры: Ричард Хаммонд
Озвучено: Видео-фильм ТВ
Перевод: Одноголосый закадровый
Продолжительность: 2 х ~ 00:55:00
Видеокодек: XVID
Битрейт видео: ~1750 kb/s
Размер кадра: 720 x 400
Качество видео: SATRip
Аудиокодек: AC-3, 2ch.
Битрейт аудио: 192 kb/s

MediaInfo

Формат : AVI
Формат/Информация : Audio Video Interleave
Размер файла : 763 Мбайт
Продолжительность : 54 м.
Общий поток : 1951 Кбит/сек
Название фильма : BBC. Richard Hammond's Journey to ...The Centre of the Planet
Режиссёр : SATRip by Thunder
Программа кодирования : VirtualDubMod 1.5.10.3 | www.virtualdub-fr.org || (build 2550/release)
Формат оригинала/Имя : Documentary
Видео
Идентификатор : 0
Формат : MPEG-4 Visual
Профиль формата : Advanced [email protected]
Параметр BVOP формата : 2
Параметр QPel формата : Нет
Параметр GMC формата : Без точки перехода
Параметр матрицы формата : Default (H.263)
Идентификатор кодека : XVID
Идентификатор кодека/Подсказка : XviD
Продолжительность : 54 м.
Битрейт : 1749 Кбит/сек
Ширина : 720 пикселей
Высота : 400 пикселей
Соотношение сторон : 16:9
Частота кадров : 25,000 кадров/сек
Цветовое пространство : YUV
Субдискретизация насыщенности : 4:2:0
Битовая глубина : 8 бит
Тип развёртки : Прогрессивная
Метод сжатия : С потерями
Бит/(Пиксели*Кадры) : 0.243
Размер потока : 685 Мбайт (90%)
Библиотека кодирования : XviD 1.2.1 (UTC 2008-12-04)
Аудио
Идентификатор : 1
Формат : AC-3
Формат/Информация : Audio Coding 3
Расширение режима : CM (complete main)
Идентификатор кодека : 2000
Продолжительность : 54 м.
Вид битрейта : Постоянный
Битрейт : 192 Кбит/сек
Каналы : 2 канала
Расположение каналов : Front: L R
Частота : 48,0 КГц
Битовая глубина : 16 бит
Метод сжатия : С потерями
Размер потока : 75,1 Мбайт (10%)
Выравнивание : Разделение по промежуткам
Продолжительность промежутка : 40 мс. (1,00 видеокадр)
Время предзагрузки промежутка : 500 мс.
Формат : AVI
Формат/Информация : Audio Video Interleave
Размер файла : 762 Мбайт
Продолжительность : 54 м.
Общий поток : 1952 Кбит/сек
Название фильма : BBC. Richard Hammond's Journey to ...The Bottom of the Ocean
Режиссёр : SATRip by Thunder
Программа кодирования : VirtualDubMod 1.5.10.3 | www.virtualdub-fr.org || (build 2550/release)
Формат оригинала/Имя : Documentary
Видео
Идентификатор : 0
Формат : MPEG-4 Visual
Профиль формата : Advanced [email protected]
Параметр BVOP формата : 2
Параметр QPel формата : Нет
Параметр GMC формата : Без точки перехода
Параметр матрицы формата : Default (H.263)
Идентификатор кодека : XVID
Идентификатор кодека/Подсказка : XviD
Продолжительность : 54 м.
Битрейт : 1750 Кбит/сек
Ширина : 720 пикселей
Высота : 400 пикселей
Соотношение сторон : 16:9
Частота кадров : 25,000 кадров/сек
Цветовое пространство : YUV
Субдискретизация насыщенности : 4:2:0
Битовая глубина : 8 бит
Тип развёртки : Прогрессивная
Метод сжатия : С потерями
Бит/(Пиксели*Кадры) : 0.243
Размер потока : 684 Мбайт (90%)
Библиотека кодирования : XviD 1.2.1 (UTC 2008-12-04)
Аудио
Идентификатор : 1
Формат : AC-3
Формат/Информация : Audio Coding 3
Расширение режима : CM (complete main)
Идентификатор кодека : 2000
Продолжительность : 54 м.
Вид битрейта : Постоянный
Битрейт : 192 Кбит/сек
Каналы : 2 канала
Расположение каналов : Front: L R
Частота : 48,0 КГц
Битовая глубина : 16 бит
Метод сжатия : С потерями
Размер потока : 75,0 Мбайт (10%)
Выравнивание : Разделение по промежуткам
Продолжительность промежутка : 40 мс. (1,00 видеокадр)
Время предзагрузки промежутка : 500 мс.
Скриншоты:                    Время раздачи: 24/7. До первых 5 скачавших.
Rip by Dmitriy40
Other forum [Profile] [PM]
Display posts from previous:    
Reply to topic

The time now is: Today 15:22

All times are GMT + 3 Hours



You cannot post new topics in this forum
You cannot reply to topics in this forum
You cannot edit your posts in this forum
You cannot delete your posts in this forum
You cannot vote in polls in this forum
You cannot attach files in this forum
You cannot download files in this forum