Today is a free download without charge Download

Удивительный манеж (Леонард Бабаханов) [1979 г., мультфильм , DVB]

Reply to topic
 
Author
Message

Omen ®

Longevity: 7 years 11 months

Posts: 181087

Торрент-статистика

Post 08-Sep-2013 00:01

[Quote]

Удивительный манеж
Жанр: мультфильм
Год выпуска: 1979
Продолжительность: 00:08:08
Режиссёр: Леонард Бабаханов
Описание: мультфильм о том, как красавица-корова стала артисткой цирка ...
Доп. информация:

Релиз группы:
Качество видео: DVB
Формат видео: MPEG-PS
Видео: MPEG2 Video, 720x576, 25 fps, 3400 kbps
Аудио: MPEG Audio, 2 сh, 48 kHz, 192 kbps
Трансляция спутникового канала: "Карусель"

MediaInfo

D:\Удивительный манеж. (1979)_DVB by SLuMeP.mpg
General
Complete name : D:\Удивительный манеж. (1979)_DVB by SLuMeP.mpg
Format : MPEG-PS
File size : 214 MiB
Duration : 8mn 8s
Overall bit rate mode : Variable
Overall bit rate : 3 678 Kbps
Video #224
ID : 224 (0xE0)
Format : MPEG Video
Format version : Version 2
Format profile : [email protected]
Format settings, BVOP : Yes
Format settings, Matrix : Custom
Duration : 8mn 8s
Bit rate mode : Variable
Bit rate : 3 413 Kbps
Maximum bit rate : 5 000 Kbps
Width : 720 pixels
Height : 576 pixels
Display aspect ratio : 4:3
Frame rate : 25.000 fps
Standard : PAL
Color space : YUV
Chroma subsampling : 4:2:0
Bit depth : 8 bits
Scan type : Interlaced
Scan order : Top Field First
Compression mode : Lossy
Bits/(Pixel*Frame) : 0.329
Stream size : 199 MiB (93%)
Audio #192
ID : 192 (0xC0)
Format : MPEG Audio
Format version : Version 1
Format profile : Layer 2
Duration : 8mn 8s
Bit rate mode : Constant
Bit rate : 192 Kbps
Channel(s) : 2 channels
Sampling rate : 48.0 KHz
Compression mode : Lossy
Stream size : 11.2 MiB (5%)

Скриншоты

Other forum [Profile] [PM]
Similar theme
Forum Topic Author Torrent Replies Last Post
./templates/default/images/folder_dl.gif Фильмы 2011-2020 Удивительное путешествие доктора Дулиттла / Dolittle (Стивен Гейган) [2020 г., приключения, комедия, семейный, фэнтези, BDRip]MVO | HDRezka Studio kilmister777
1 | 0

0 | 600

0

2020-03-31 11:14
kilmister777 Latest
Display posts from previous:    
Reply to topic

The time now is: Today 03:04

All times are GMT + 3 Hours



You cannot post new topics in this forum
You cannot reply to topics in this forum
You cannot edit your posts in this forum
You cannot delete your posts in this forum
You cannot vote in polls in this forum
You cannot attach files in this forum
You cannot download files in this forum