Today is a free download without charge Download

Сказка о твердом орехе (Анатолий Аляшев) [1971 г., мультфильм , DVB]

Reply to topic
 
Author
Message

Omen ®

Longevity: 7 years 11 months

Posts: 181087

Торрент-статистика

Post 08-Sep-2013 00:01

[Quote]

Сказка о твердом орехе
Жанр: мультфильм
Год выпуска: 1971
Продолжительность: 00:18:07
Режиссёр: Анатолий Аляшев
Описание: мультфильм по мотивам народных сказок о злой ведьме, принцессе и храбром юноше ...
Доп. информация:

Качество видео: DVB
Формат видео: MPEG-PS
Видео: MPEG2 Video, 720x576, 25 fps, 3400 kbps
Аудио: MPEG Audio, 2 сh, 48 kHz, 192 kbps
Трансляция спутникового канала: "Карусель"

MediaInfo

D:\Сказка о твёрдом орехе. (1971)_DVB by SLuMeP.mpg
General
Complete name : D:\Сказка о твёрдом орехе. (1971)_DVB by SLuMeP.mpg
Format : MPEG-PS
File size : 482 MiB
Duration : 18mn 7s
Overall bit rate mode : Variable
Overall bit rate : 3 713 Kbps
Writing library : (c) 1998-2010 Womble Multimedia, Inc. / MPEG Video Wizard DVD 5.0.0.114 (01/2010) / Apr 20 2010
Video #224
ID : 224 (0xE0)
Format : MPEG Video
Format version : Version 2
Format profile : [email protected]
Format settings, BVOP : Yes
Format settings, Matrix : Custom
Duration : 18mn 7s
Bit rate mode : Variable
Bit rate : 3 448 Kbps
Maximum bit rate : 5 000 Kbps
Width : 720 pixels
Height : 576 pixels
Display aspect ratio : 4:3
Frame rate : 25.000 fps
Standard : PAL
Color space : YUV
Chroma subsampling : 4:2:0
Bit depth : 8 bits
Scan type : Interlaced
Scan order : Top Field First
Compression mode : Lossy
Bits/(Pixel*Frame) : 0.333
Stream size : 447 MiB (93%)
Writing library : (c) 1998-2010 Womble Multimedia, Inc. / MPEG Video Wizard DVD 5.0.0.114 (01/2010) / Apr 20 2010
Audio #192
ID : 192 (0xC0)
Format : MPEG Audio
Format version : Version 1
Format profile : Layer 2
Duration : 18mn 7s
Bit rate mode : Constant
Bit rate : 192 Kbps
Channel(s) : 2 channels
Sampling rate : 48.0 KHz
Compression mode : Lossy
Delay relative to video : -40ms
Stream size : 24.9 MiB (5%)
Menu

Скриншоты

Other forum [Profile] [PM]
Display posts from previous:    
Reply to topic

The time now is: Today 20:25

All times are GMT + 3 Hours



You cannot post new topics in this forum
You cannot reply to topics in this forum
You cannot edit your posts in this forum
You cannot delete your posts in this forum
You cannot vote in polls in this forum
You cannot attach files in this forum
You cannot download files in this forum