Today is a free download without charge Download

Путь ( Владимир Пасичник ) (2009, Боевик ) DVBRip

Reply to topic
 
Author
Message

Витек1 ®

Gender:

Longevity: 7 years 10 months

Posts: 451

Location: Житомир

Торрент-статистика

Post 07-Sep-2013 21:28

[Quote]

Путь
«Путь в тысячу миль начинается с первого шага»
- Производство: Россия
Перевод: Не требуется (русский)
Субтитры: Отсутствуют
Год выпуска: 2009
Жанр: Боевик
Дата мировой премьеры: 21 мая 2009, ...
Дата российской премьеры: 21 мая 2009, «Наше Кино»
Дата выхода DVD релиза: 11 июня 2009, «Columbia/Sony», ...
Описание фильма:
Масштабный приключенческий боевик, действие которого происходит не только в самых неожиданных точках земного шара, но и в разные эпохи. В центре сюжета — история Алексея, молодого человека эпохи лихих 90-х, когда альтернативой нищенскому существованию были криминал и наркотики. Но вместо колонии Алексей попадает в «Школу самбо», где из трудных подростков делают чемпионов. Эта закалка пригодится Алексею в армии и в спецподразделении по борьбе против международного терроризма и наркомафии. Группа Z, которую возглавляет Алекс, получает задание уничтожить базу террористов и выяснить имя предателя, сообщившего им коды доступа к системе слежения с военных спутников....
Режиссер: Владимир Пасичник
Актеры: Дмитрий Носов, Николай Валуев, Дэвид Буено, Елена Нелидова, Ринат Лайшев, Александр Баранов, Александр Баринов, Валерий Востротин, Алик Гулханов, Максим Тынянов...
Продолжительность: 01:46:57
Качество видео: DVBRip

Видеокодек: MPEG-2
Битрейт видео: ~3086 Kbps
Размер кадра: 720x576
Аудиокодек: MP2, 2 ch
Битрейт аудио: 192 Kbps
Сэмпл: Ссылка

MI

General
ID : 1 (0x1)
Complete name : C:\Users\Колян\Downloads\Путь.ts
Format : MPEG-TS
File size : 2.58 GiB
Duration : 1h 46mn
Overall bit rate mode : Variable
Overall bit rate : 3 450 Kbps
Video
ID : 336 (0x150)
Menu ID : 1 (0x1)
Format : MPEG Video
Format version : Version 2
Format profile : [email protected]
Format settings, BVOP : Yes
Format settings, Matrix : Custom
Format settings, GOP : M=3, N=12
Codec ID : 2
Duration : 1h 46mn
Bit rate mode : Variable
Bit rate : 3 086 Kbps
Maximum bit rate : 5 000 Kbps
Width : 720 pixels
Height : 576 pixels
Display aspect ratio : 4:3
Frame rate : 25.000 fps
Standard : PAL
Color space : YUV
Chroma subsampling : 4:2:0
Bit depth : 8 bits
Scan type : Interlaced
Scan order : Top Field First
Compression mode : Lossy
Bits/(Pixel*Frame) : 0.298
Time code of first frame : 00:00:00:00
Time code source : Group of pictures header
Stream size : 2.31 GiB (89%)
Audio
ID : 416 (0x1A0)
Menu ID : 1 (0x1)
Format : MPEG Audio
Format version : Version 1
Format profile : Layer 2
Codec ID : 3
Duration : 1h 46mn
Bit rate mode : Constant
Bit rate : 192 Kbps
Channel count : 2 channels
Sampling rate : 48.0 KHz
Compression mode : Lossy
Delay relative to video : 1ms
Stream size : 147 MiB (6%)
Language : Russian
Скриншоты:
       

_________________
Скачал сам, дай скачать другому!!!Не забудь сказать -
Other forum [Profile] [PM]
Display posts from previous:    
Reply to topic

The time now is: Today 10:42

All times are GMT + 3 Hours



You cannot post new topics in this forum
You cannot reply to topics in this forum
You cannot edit your posts in this forum
You cannot delete your posts in this forum
You cannot vote in polls in this forum
You cannot attach files in this forum
You cannot download files in this forum