Today is a free download without charge Download

Радиоволна / Frequency (Грегори Хоблит) [2000 г., фантастика, триллер, драма, криминал, BDRip720i]

Reply to topic
 
Author
Message

Delia ®

Gender:

Longevity: 9 years 6 months

Posts: 1821

Торрент-статистика

Post 20-Sep-2011 22:26

[Quote]

Радиоволна Frequency Год выпуска: 2000
Страна: США
Жанр: фантастика, триллер, драма, криминал
Продолжительность: 01:58:59
Перевод: Профессиональный (полное дублирование)
Режиссер: Грегори Хоблит
Продюссер: Билл Карраро, Тоби Эммерих, Грегори Хоблит
Сценарий: Тоби Эммерих
Бюджет: $31 000 000
Премьера в мире: 28 апреля 2000
В ролях: Деннис Куэйд, Джеймс Кэвизел, Шоун Дойл, Элизабет Митчелл, Андре Брогер, Ноа Эммерик, Мелисса Эррико, Дэниэл Хенсон, Джордан Бриджес, Стефен Джофф
Описание: Полицейский Джон Салливэн случайно связывается по любительской радиостанции со своим покойным отцом, пожарным Фрэнком Салливэном, который умер во время тушения пожара много лет назад...
Качество: BDRip 720i
Формат: MKV
Видео кодек: H.264
Аудио кодек: AC3
Видео: English, 4554 Кбит/сек, 1280*544 (2,35:1), в 29,970 кадр/сек, AVC ([email protected])
Аудио: Russian, 384 Кбит/сек, 48,0 КГц, 16 бит, 6 канала(ов), AC-3
Аудио:English, 320 Кбит/сек, 48,0 КГц, 16 бит, 6 канала(ов), AC-3
Cубтитры:Russian, English ( VobSub )
Отдельно:
Russian Dolby Digital 5.1 (448 kbps) (Многоголосый закадровый)
Russian Dolby Digital 5.1 (448 kbps) (Одноголосый закадровый, Ю.Живов)

MI:

Код:
Общее
Уникальный идентификатор         : 212494985403890694064717589980198006379 (0x9FDD0BA8A674FAACACB34A7B88D4EE6B)
Полное имя                       : E:\торрент\Frequency (2000)BDRip720i\Frequency (2000)BDRip720i.mkv
Формат                           : Matroska
Размер файла                     : 4,37 Гбайт
Продолжительность                : 1 ч. 59 м.
Общий поток                      : 5252 Кбит/сек
Дата кодирования                 : UTC 2011-09-20 18:23:34
Программа кодирования            : mkvmerge v4.9.1 ('Ich will') built on Jul 11 2011 23:53:15
Библиотека кодирования           : libebml v1.2.1 + libmatroska v1.1.1
Видео
Идентификатор                    : 1
Формат                           : AVC
Формат/Информация                : Advanced Video Codec
Профиль формата                  : [email protected]
Параметр CABAC формата           : Да
Параметр ReFrames формата        : 10 кадры
Параметры GOP формата            : M=1, N=30
Идентификатор кодека             : V_MPEG4/ISO/AVC
Продолжительность                : 1 ч. 59 м.
Битрейт                          : 4554 Кбит/сек
Ширина                           : 1280 пикс.
Высота                           : 544 пикс.
Соотношение сторон               : 2,35:1
Частота кадров                   : 29,970 кадр/сек
Цветовое пространство            : YUV
Подвыборка цветности             : 4:2:0
Битовая глубина                  : 8 бит
Тип развёртки                    : Прогрессивная
Бит/(Пиксели*Кадры)              : 0.218
Размер потока                    : 3,70 Гбайт (85%)
Библиотека кодирования           : x264 core 116 r2074 2641b9e
Настройки программы              : cabac=1 / ref=10 / deblock=1:-3:-3 / analyse=0x3:0x133 / me=umh / subme=9 / psy=1 / psy_rd=1.00:0.20 / mixed_ref=1 / me_range=32 / chroma_me=1 / trellis=2 / 8x8dct=1 / cqm=0 / deadzone=21,11 / fast_pskip=0 / chroma_qp_offset=-3 / threads=6 / sliced_threads=0 / nr=0 / decimate=1 / interlaced=0 / bluray_compat=0 / constrained_intra=0 / bframes=6 / b_pyramid=2 / b_adapt=2 / b_bias=0 / direct=3 / weightb=1 / open_gop=0 / weightp=2 / keyint=250 / keyint_min=23 / scenecut=40 / intra_refresh=0 / rc_lookahead=50 / rc=2pass / mbtree=1 / bitrate=4554 / ratetol=1.0 / qcomp=0.90 / qpmin=10 / qpmax=51 / qpstep=4 / cplxblur=20.0 / qblur=0.5 / ip_ratio=1.40 / aq=1:1.00
Язык                             : English
Аудио #1
Идентификатор                    : 2
Формат                           : AC-3
Формат/Информация                : Audio Coding 3
Расширение режима                : CM (complete main)
Идентификатор кодека             : A_AC3
Продолжительность                : 1 ч. 59 м.
Вид битрейта                     : Постоянный
Битрейт                          : 384 Кбит/сек
Канал(ы)                         : 6 канала(ов)
Расположение каналов             : Front: L C R, Side: L R, LFE
Частота                          : 48,0 КГц
Битовая глубина                  : 16 бит
Метод сжатия                     : С потерями
Размер потока                    : 327 Мбайт (7%)
Язык                             : Russian
Аудио #2
Идентификатор                    : 3
Формат                           : AC-3
Формат/Информация                : Audio Coding 3
Расширение режима                : CM (complete main)
Идентификатор кодека             : A_AC3
Продолжительность                : 1 ч. 59 м.
Вид битрейта                     : Постоянный
Битрейт                          : 320 Кбит/сек
Канал(ы)                         : 6 канала(ов)
Расположение каналов             : Front: L C R, Side: L R, LFE
Частота                          : 48,0 КГц
Битовая глубина                  : 16 бит
Метод сжатия                     : С потерями
Размер потока                    : 273 Мбайт (6%)
Язык                             : English
Текст #1
Идентификатор                    : 4
Формат                           : VobSub
Режим смешивания                 : zlib
Идентификатор кодека             : S_VOBSUB
Идентификатор кодека/Информация  : The same subtitle format used on DVDs
Язык                             : Russian
Текст #2
Идентификатор                    : 5
Формат                           : VobSub
Режим смешивания                 : zlib
Идентификатор кодека             : S_VOBSUB
Идентификатор кодека/Информация  : The same subtitle format used on DVDs
Язык                             : English
Меню
00:00:00.000                     : en:Chapter 01
00:07:00.686                     : en:Chapter 02
00:11:33.693                     : en:Chapter 03
00:16:54.847                     : en:Chapter 04
00:22:22.941                     : en:Chapter 05
00:27:25.543                     : en:Chapter 06
00:33:53.364                     : en:Chapter 07
00:44:11.915                     : en:Chapter 08
00:46:17.574                     : en:Chapter 09
00:54:29.232                     : en:Chapter 10
00:57:29.779                     : en:Chapter 11
01:07:21.704                     : en:Chapter 12
01:11:15.838                     : en:Chapter 13
01:17:21.036                     : en:Chapter 14
01:21:45.033                     : en:Chapter 15
01:26:19.107                     : en:Chapter 16
01:31:47.201                     : en:Chapter 17
01:37:52.533                     : en:Chapter 18
01:44:08.842                     : en:Chapter 19
01:51:48.935                     : en:Chapter 20
01:54:11.311                     : en:Chapter 21
01:58:58.131                     : en:Chapter 22

Скриншоты

                 

_________________
Человек – это канат, натянутый между животным и сверхчеловеком, – канат над пропастью.
В человеке ценно то, что он мост, а не цель. Фридрих Ницше


Last edited by Delia on 2011-09-21 07:47; edited 1 time in total
Other forum [Profile] [PM]
Similar theme
Forum Topic Author Torrent Replies Last Post
./templates/default/images/folder_dl.gif Современная проза, классика, поэзия Радио России | Театр у микрофона выпуск №13 [2006] [MP3] UndegraundMen
1 | 0

0 | 837

1

2013-04-12 00:03
UndegraundMen Latest
./templates/default/images/folder_dl.gif Современная проза, классика, поэзия Радио России | Театр у микрофона выпуск №12 [2006] [MP3] UndegraundMen
1 | 0

0 | 812

0

2013-04-12 00:03
UndegraundMen Latest
./templates/default/images/folder_dl.gif Современная проза, классика, поэзия Радио России | Театр у микрофона выпуск №19 [2006] [MP3] UndegraundMen
1 | 0

0 | 816

1

2013-04-16 00:00
UndegraundMen Latest
./templates/default/images/folder_dl.gif Современная проза, классика, поэзия Радио России | Театр у микрофона выпуск №17 [2006] [MP3] UndegraundMen
1 | 0

0 | 667

0

2013-04-16 00:00
UndegraundMen Latest
./templates/default/images/folder_dl.gif Современная проза, классика, поэзия Радио России | Театр у микрофона выпуск №16 [2006] [MP3] UndegraundMen
1 | 0

0 | 853

0

2013-04-16 00:00
UndegraundMen Latest
./templates/default/images/folder_dl.gif Современная проза, классика, поэзия Радио России | Театр у микрофона выпуск №21 [2006] [MP3] UndegraundMen
1 | 0

0 | 827

1

2013-04-16 00:00
UndegraundMen Latest
./templates/default/images/folder_dl.gif Современная проза, классика, поэзия Радио России | Театр у микрофона выпуск №20 [2006] [MP3] UndegraundMen
1 | 0

0 | 747

3

2013-04-16 00:00
UndegraundMen Latest
./templates/default/images/folder_dl.gif Современная проза, классика, поэзия Радио России | Театр у микрофона выпуск №26 [2006] [MP3] UndegraundMen
1 | 0

0 | 778

1

2013-04-19 00:00
UndegraundMen Latest
./templates/default/images/folder_dl.gif Современная проза, классика, поэзия Радио России | Театр у микрофона выпуск №25 [2006] [MP3] UndegraundMen
1 | 0

0 | 667

0

2013-04-19 00:00
UndegraundMen Latest
./templates/default/images/folder_dl.gif Современная проза, классика, поэзия Радио России | Театр у микрофона выпуск №24 [2006] [MP3] UndegraundMen
1 | 0

0 | 779

1

2013-04-19 00:00
UndegraundMen Latest
Display posts from previous:    
Reply to topic

The time now is: Today 08:50

All times are GMT + 3 Hours



You cannot post new topics in this forum
You cannot reply to topics in this forum
You cannot edit your posts in this forum
You cannot delete your posts in this forum
You cannot vote in polls in this forum
You cannot attach files in this forum
You cannot download files in this forum