Today is a free download without charge Download

Classic Albums. Pink Floyd: The Dark Side Of The Moon [2003, Psychedelic Rock | Documental, BDRip 1080p]

Reply to topic
 
Author
Message

Omen ®

Longevity: 8 years 3 months

Posts: 181087

Торрент-статистика

Post 05-Sep-2013 01:27

[Quote]

Classic Albums. Pink Floyd: The Dark Side Of The Moon
Классические Альбомы. Пинк Флойд: Тёмная Сторона Луны
- - Страна: Великобритания
Жанр: Psychedelic Rock | Documental
Продолжительность: 00:49:13
Год выпуска: 2003
Перевод: Профессиональный, одноголосый
Режиссёр: Мэттью Лонгфеллоу / Matthew Longfellow-Описание: Это история, рассказаная изнутри создателями шедевра. The Dark Side Of The Moon (Темная сторона Луны) является альбомом, который резко трансформировал Pink Floyd из любимчиков арт-хаусной сцены в глобальных стадионных суперзвёзд.
До 1973 года Pink Floyd поддерживали неустанный концертный график, и когда они подошли к записи нового альбома у них уже была основа для того, что должно было называться The Dark Side Of The Moon. Это был первый альбом, где Роджер Уотерс (Roger Waters) был автором всех стихов, а также базовой "концепции". С безвременными качествами производства и музыкальности, соединённых с гипнотическим воздействием его центральных тем - холодность, паранойя, безумие, война и смерть, The Dark Side Of The Moon суждено было стать доминирующим альбомом 70-х и 80-х годов (с рекордным количеством недель подряд в чартах). Тридцать лет спустя он все еще находит отклик у нового поколении любителей музыки (думаю так будет и дальше, пока живы истинные ценители рока и хорошей музыки вообще (прим. пер.)).
В этом фильме трэк за трэком отслеживается процесс создания альбома 1973-го года. Все четверо участников группы, в то время Роджер Уотерс, Дэвид Гилмоур (David Gilmour), Ник Мэйсон (Nick Mason) и Ричард Райт (Richard Wright) дают эксклюзивные интервью. Роджер, Дэвид и Ричард играют песни и демонстрируют темы из альбома. Алан Парсонс (Alan Parsons) (инженер звукозаписи) знакомит с мультитрэковыми плёнками, давая уникальную возможность взглянуть на музыкальное полотно записи и всё это проиллюстрировано архивными кадрами.
The Dark Side Of The Moon в комбинации с великолепными песнями, изобретательными эффектами и одной из самых узнаваемых обложек, из когда-либо созданных, впечатался в массовое подсознание и стал орентиром в истории Рока, по-настоящему Классическим Альбомом.
-Качество: BDRip 1080p
Контейнер: MKV
Видео: MPEG4 Video (H264) 1920x1080 29.97fps [Video]
Аудио 1: Dolby AC3 48000Hz stereo [Audio] - Rus
Аудио 2: Dolby AC3 48000Hz stereo [Audio] - Eng
Субтитры: Есть, русские (SRT)
Чаптеры: Есть-

Отчёт MediaInfo / BDInfo

GeneralUnique ID : 202082467732705930287544223810950026268 (0x9807AAE6CC77241EB8BD4B9E1D58541C)Complete name : F:\Pink Floyd\Classic Albums - 2003 - The Making Of The Dark Side Of The Moon (1973) [BD-Rip 1080p].mkvFormat : MatroskaFormat version : Version 2File size : 3.41 GiBDuration : 49mn 13sOverall bit rate : 9 925 KbpsEncoded date : UTC 2013-09-04 17:35:50Writing application : mkvmerge v5.6.0 ('Kenya Kane') built on May 27 2012 16:44:04Writing library : libebml v1.2.3 + libmatroska v1.3.0
VideoID : 1Format : AVCFormat/Info : Advanced Video CodecFormat profile : [email protected] settings, CABAC : YesFormat settings, ReFrames : 4 framesMuxing mode : Header strippingCodec ID : V_MPEG4/ISO/AVCDuration : 49mn 13sBit rate : 9 092 KbpsWidth : 1 920 pixelsHeight : 1 080 pixelsDisplay aspect ratio : 16:9Frame rate mode : ConstantFrame rate : 29.970 fpsColor space : YUVChroma subsampling : 4:2:0Bit depth : 8 bitsScan type : ProgressiveBits/(Pixel*Frame) : 0.146Stream size : 3.06 GiB (90%)Writing library : x264 core 133 r2334 a3ac64bEncoding settings : cabac=1 / ref=4 / deblock=1:0:0 / analyse=0x3:0x133 / me=umh / subme=8 / psy=1 / psy_rd=1.00:0.00 / mixed_ref=1 / me_range=16 / chroma_me=1 / trellis=1 / 8x8dct=1 / cqm=0 / deadzone=21,11 / fast_pskip=0 / chroma_qp_offset=-2 / threads=12 / lookahead_threads=2 / sliced_threads=0 / nr=0 / decimate=1 / interlaced=0 / bluray_compat=0 / constrained_intra=0 / bframes=3 / b_pyramid=2 / b_adapt=1 / b_bias=0 / direct=1 / weightb=1 / open_gop=0 / weightp=2 / keyint=250 / keyint_min=25 / scenecut=40 / intra_refresh=0 / rc_lookahead=40 / rc=2pass / mbtree=1 / bitrate=9092 / ratetol=1.0 / qcomp=0.60 / qpmin=0 / qpmax=69 / qpstep=4 / cplxblur=20.0 / qblur=0.5 / ip_ratio=1.40 / aq=1:1.00Language : EnglishDefault : YesForced : No
Audio #1ID : 2Format : AC-3Format/Info : Audio Coding 3Mode extension : CM (complete main)Format settings, Endianness : BigMuxing mode : Header strippingCodec ID : A_AC3Duration : 49mn 13sBit rate mode : ConstantBit rate : 384 KbpsChannel(s) : 2 channelsChannel positions : Front: L RSampling rate : 48.0 KHzBit depth : 16 bitsCompression mode : LossyStream size : 135 MiB (4%)Language : RussianDefault : YesForced : Yes
Audio #2ID : 3Format : AC-3Format/Info : Audio Coding 3Mode extension : CM (complete main)Format settings, Endianness : BigMuxing mode : Header strippingCodec ID : A_AC3Duration : 49mn 13sBit rate mode : ConstantBit rate : 448 KbpsChannel(s) : 2 channelsChannel positions : Front: L RSampling rate : 48.0 KHzBit depth : 16 bitsCompression mode : LossyStream size : 158 MiB (5%)Language : EnglishDefault : NoForced : No
TextID : 4Format : UTF-8Codec ID : S_TEXT/UTF8Codec ID/Info : UTF-8 Plain TextLanguage : RussianDefault : NoForced : No
Menu00:00:00.000 : en:00:00:00.00000:04:32.839 : en:00:04:32.83900:06:14.241 : en:00:06:14.24100:08:39.252 : en:00:08:39.25200:12:50.403 : en:00:12:50.40300:18:00.913 : en:00:18:00.91300:24:01.040 : en:00:24:01.04000:30:17.649 : en:00:30:17.64900:37:14.032 : en:00:37:14.03200:42:53.638 : en:00:42:53.63800:47:05.756 : en:00:47:05.756

Скриншоты

Other forum [Profile] [PM]
Display posts from previous:    
Reply to topic

The time now is: Today 21:11

All times are GMT + 3 Hours



You cannot post new topics in this forum
You cannot reply to topics in this forum
You cannot edit your posts in this forum
You cannot delete your posts in this forum
You cannot vote in polls in this forum
You cannot attach files in this forum
You cannot download files in this forum