Today is a free download without charge Download

Queens Of The Stone Age - La Musicale Live (Studio 104, Paris, 2013.05.10) [2013, Alternative rock / Hard rock / Psychedelic rock, HDTVRip 720p]

Reply to topic
 
Author
Message

Omen ®

Longevity: 8 years 4 months

Posts: 181087

Торрент-статистика

Post 04-Sep-2013 00:45

[Quote]

Queens Of The Stone Age - La Musicale Live (Studio 104, Paris, 2013.05.10)- -Жанр: Alternative rock / Hard rock / Psychedelic rock
Продолжительность: 00:47:22
Год выпуска: 2013-Трек-лист:
01. Keep Your Eyes Peeled
02. I Sat By The Ocean
03. The Vampyre of Time and Memory
04. If I Had a Tail
05. My God is the Sun
06. Kalopsia
07. Smooth Sailing
08. I Appear Missing
09. ...Like Clockwork-Доп. информация: В отличие от раздачи нет интервью и ниже качество (720p против 1080i), но нет огромного количества "глюков" видео (например, в той раздаче один из них заметен в начале I Sat By The Ocean).
Scene-релиз: Queens.Of.The.Stone.Age.La.Musicale.Live.Studio.104.Paris.2013.05.10.720p.x264.2013-SRP-Качество: HDTVRip 720p
Контейнер: MKV
Видео кодек: H.264
Аудио кодек: AC3
Видео: H.264, 1280x720, 6191 Kbps, 25 fps
Аудио: AC3, 192 Kbps, 48.0 KHz, 2 ch

Отчёт MediaInfo / BDInfo

GeneralUnique ID : 189230636567897603686523988330581359077 (0x8E5C7EB422D0E5F8B6EEDA64309879E5)Complete name : /Volumes/HDD2/Torrent Share/Queens Of The Stone Age - La Musicale Live 2013.mkvFormat : MatroskaFile size : 2.16 GiBDuration : 47mn 22sOverall bit rate : 6 513 KbpsEncoded date : UTC 2013-08-25 14:44:17Writing application : mkvmerge v5.8.0 ('No Sleep / Pillow') built on Sep 2 2012 15:37:04Writing library : libebml v1.2.3 + libmatroska v1.3.0
VideoID : 1Format : AVCFormat/Info : Advanced Video CodecFormat profile : [email protected] settings, CABAC : YesFormat settings, ReFrames : 5 framesCodec ID : V_MPEG4/ISO/AVCDuration : 47mn 22sBit rate : 6 191 KbpsWidth : 1 280 pixelsHeight : 720 pixelsDisplay aspect ratio : 16:9Frame rate : 25.000 fpsColor space : YUVChroma subsampling : 4:2:0Bit depth : 8 bitsScan type : ProgressiveBits/(Pixel*Frame) : 0.269Stream size : 2.05 GiB (95%)Writing library : x264 core 135 r2345 f0c1c53Encoding settings : cabac=1 / ref=5 / deblock=1:-1:-1 / analyse=0x3:0x133 / me=umh / subme=10 / psy=1 / psy_rd=1.00:0.00 / mixed_ref=1 / me_range=24 / chroma_me=1 / trellis=2 / 8x8dct=1 / cqm=0 / deadzone=21,11 / fast_pskip=0 / chroma_qp_offset=-2 / threads=18 / lookahead_threads=4 / sliced_threads=0 / nr=0 / decimate=1 / interlaced=0 / bluray_compat=0 / constrained_intra=0 / bframes=16 / b_pyramid=2 / b_adapt=2 / b_bias=0 / direct=3 / weightb=1 / open_gop=0 / weightp=2 / keyint=250 / keyint_min=25 / scenecut=40 / intra_refresh=0 / rc_lookahead=60 / rc=crf / mbtree=1 / crf=18.0 / qcomp=0.60 / qpmin=0 / qpmax=69 / qpstep=4 / ip_ratio=1.40 / aq=1:1.00
AudioID : 2Format : AC-3Format/Info : Audio Coding 3Mode extension : CM (complete main)Codec ID : A_AC3Duration : 47mn 22sBit rate mode : ConstantBit rate : 192 KbpsChannel(s) : 2 channelsChannel positions : Front: L RSampling rate : 48.0 KHzBit depth : 16 bitsCompression mode : LossyDelay relative to video : 100msStream size : 65.1 MiB (3%)

Скриншоты

Other forum [Profile] [PM]
Display posts from previous:    
Reply to topic

The time now is: Today 18:12

All times are GMT + 3 Hours



You cannot post new topics in this forum
You cannot reply to topics in this forum
You cannot edit your posts in this forum
You cannot delete your posts in this forum
You cannot vote in polls in this forum
You cannot attach files in this forum
You cannot download files in this forum