Today is a free download without charge Download

Морские дьяволы - 5 / Сезон: 5 Серии: 1-12 из ??? (Александр Картохин, Алексей Гусев (II), Игорь Ларин (II), Вадим Саетгалиев) [2011, боевик, приключения, SATRip]

Reply to topic
 
Author
Message

nsa1977 ®

Gender:

Longevity: 11 years

Posts: 1470

Location: Пенза

Торрент-статистика

Post 19-Sep-2011 23:50

[Quote]

Морские дьяволы - 5
Серии: 1-12 из ???

Год выпуска: 2011
Производство: Телекомпания НТВ, «Гамма-продакшн», «Константин Про»,
Жанр: боевик, приключения
Продолжительность: 00:46:24
Субтитры: нет
Режиссёр: Александр Картохин, Алексей Гусев (II), Игорь Ларин (II), Вадим Саетгалиев--В ролях: Олег Чернов, Дарья Лесникова (Юргенс), Михаил Тарабукин, Антон Гуляев, Егор Бакулин, Евгений Добряков, Павел Ивановский, Роман Индык, Михаил Сидаш, Виталий Пичик, Светлана Селезнёва, Руслан Спояло, Владимир Чуприков, Анатолий Хропов, Дмитрий Александров (III), Даниил Кокин, Роман Притула, Владимир Тебенко, Павел Чунихин, Марина Дуксова--Описание:Ураганная премьера НТВ! Сериал «Морские дьяволы» возвращается! Батя, Багира, Кот и Риф — в пятом сезоне сериала о приключениях непотопляемой четверки! В новом сезоне «Морских дьяволов» отчаянным бойцам «Тайфуна» предстоит выяснить, на каком судне преступники собираются вывезти оружие из страны, тайно проникнуть на захваченный боевиками дебаркадер, где удерживаются заложники, догнать пограничный катер, угнанный беглыми заключенными, обезвредить бомбу на людном пляже, предотвратить провокацию в одном из портов Ближнего Востока и не дать дискредитировать российских моряков. Это — лишь малая часть спецзаданий, которые начальство может доверить только им.Этот захватывающий боевик посвящен морским спецназовцам ВМФ России, всем боевым пловцам - тем, кто является элитой наших вооруженных сил. Как известно, все имена и боевые псевдонимы в сериале вымышлены, а отряд боевых пловцов особого назначения «Тайфун» не существовал никогда. Но такие подразделения существуют на самом деле, и их подвигами страна вправе гордиться!--Качество: SATRip
Формат: AVI
Видео кодек: XviD
Аудио кодек: MP3
Видео: Xvid 704x400 25.00fps 1484kbps [Bits/(Pixel*Frame): 0.211]
Аудио: MPEG Audio Layer 3 48000Hz stereo 128kbps--

Внимание! Раздача ведётся путём добавления новых серий


при каждом добавлении создаётся новый торрент. Чтобы начать докачку новой серии, пользователям необходимо сделать следующее:
(1) остановить скачивание,
(2) удалить старый торрент у себя из клиента (старые серии удалять не надо),
(3) скачать новый торрент и запустить его у себя в клиенте вместо старого, при этом указать клиенту путь в старую папку куда и должно происходить скачивание новых серий.
Ваш клиент при этом должен произвести хеширование (проверку) старой папки (если не производит сам - помогите ему сделать это), и будет докачивать только те серии которых у вас ещё нет. Старые серии при этом не удаляются, а продолжают раздаваться!
Eсли вы уже удалили старые серии, то предотвратить повторную закачку старых серий можно, отжав галочку в соответствующих местах при запуске нового торрента. По возможности, желательно не удалять старые серии как можно дольше чтобы релизёр не столько продолжал раздавать старые серии, а смог сконцентрироваться на новых.

MI

Complete name : D:\Morskie Djavoli-5\Morskie Djavoli-5_01.avi
Format : AVI
Format/Info : Audio Video Interleave
File size : 538 MiB
Duration : 46mn 24s
Overall bit rate : 1 622 Kbps
Writing application : VirtualDubMod 1.5.10.2 (build 2540/release)
Writing library : VirtualDubMod build 2540/release
Video
ID : 0
Format : MPEG-4 Visual
Format profile : Advanced [email protected]
Format settings, BVOP : Yes
Format settings, QPel : No
Format settings, GMC : No warppoints
Format settings, Matrix : Default (H.263)
Muxing mode : Packed bitstream
Codec ID : XVID
Codec ID/Hint : XviD
Duration : 46mn 24s
Bit rate : 1 484 Kbps
Width : 704 pixels
Height : 400 pixels
Display aspect ratio : 16:9
Frame rate : 25.000 fps
Resolution : 8 bits
Colorimetry : 4:2:0
Scan type : Progressive
Bits/(Pixel*Frame) : 0.211
Stream size : 493 MiB (92%)
Writing library : XviD 1.2.1 (UTC 2008-12-04)
Audio
ID : 1
Format : MPEG Audio
Format version : Version 1
Format profile : Layer 3
Mode : Joint stereo
Format_Settings_ModeExtension : MS Stereo
Codec ID : 55
Codec ID/Hint : MP3
Duration : 46mn 24s
Bit rate mode : Constant
Bit rate : 128 Kbps
Channel(s) : 2 channels
Sampling rate : 48.0 KHz
Stream size : 42.5 MiB (8%)
Alignment : Aligned on interleaves
Interleave, duration : 40 ms (1.00 video frame)
Interleave, preload duration : 504 m
--          

_________________


Last edited by nsa1977 on 2011-10-01 22:31; edited 1 time in total
Other forum [Profile] [PM]
Display posts from previous:    
Reply to topic

The time now is: Today 13:35

All times are GMT + 3 Hours



You cannot post new topics in this forum
You cannot reply to topics in this forum
You cannot edit your posts in this forum
You cannot delete your posts in this forum
You cannot vote in polls in this forum
You cannot attach files in this forum
You cannot download files in this forum