Today is a free download without charge Download

Охотники за бриллиантами / Сезон: 1 Серии: 1-8 из 8 (Александр Котт) [2011, Детектив, SATRip]

Reply to topic
 
Author
Message

nsa1977 ®

Gender:

Longevity: 11 years

Posts: 1470

Location: Пенза

Торрент-статистика

Post 19-Sep-2011 23:30

[Quote]

Охотники за бриллиантами
Серии: 1-8 из 8

Год выпуска: 2011
Жанр: Детектив
Производство: Централ Партнершип
Продолжительность: 00:53:00
Субтитры: нет
Режиссёр: Александр Котт--В ролях: Алексей Серебряков, Евгений Миронов, Александр Новин, Мария Аронова, Пётр Фёдоров, Людмила Максакова, Владимир Ильин, Авангард Леонтьев, Михаил Горевой, Владимир Симонов, Татьяна Жекова, Ольга Зубкова, Роман Синицын, Андрей Бута, Игорь Гордин, Геннадий Поварухин, Павел Шингарев, Ирина Токарчук--Описание: В начале 80-х годов по СССР прокатилась волна громких «бриллиантовых» дел, самым первым из которых стало преступление с ограблением квартиры вдовы Алексея Толстого. Имущество известного писателя, в основном антиквариат, стоило баснословных денег. Ходили даже слухи, что на эти деньги можно было купить колонну автотранспорта для таксопарка. Коллекция, собранная знаменитым писателем, считалась самой богатой в стране.
Помимо антиквариата, из квартиры были похищены уникальные драгоценности: старинный ювелирный гарнитур с бриллиантами (серьги и массивная бриллиантовая брошь «Королевская лилия» в виде цветка лилии). Брошь была сделана в XVIII веке по заказу французского короля Людовика XV. Драгоценности неоднократно меняли владельцев, но впоследствии были куплены писателем и подарены жене во время отдыха во Франции. Кто организовал и совершил дерзкое преступление в самом центре советской столицы? Следы расследования ведут наверх – в дело оказываются впутанными иностранные дипломаты и даже дочь генерального секретаря КПСС…--Качество: SATRip
Формат: AVI
Видео кодек: XviD
Аудио кодек: MP3
Видео: 704x368 (1.91:1), 25 fps, XviD build 50 ~1401 kbps avg, 0.22 bit/pixel
Аудио: 48 kHz, MPEG Layer 3, 2 ch, ~128.00 kbps avg--

MI


General
Complete name : I:\Закачки\Охотники за бриллиантами\Ohotniki.za.Brilliantami.1.avi
Format : AVI
Format/Info : Audio Video Interleave
File size : 578 MiB
Duration : 52mn 30s
Overall bit rate : 1 540 Kbps
Writing library : VirtualDub build 32842/release
Video
Format : MPEG-4 Visual
Format profile : Streaming [email protected]
Format settings, BVOP : Yes
Format settings, QPel : No
Format settings, GMC : No warppoints
Format settings, Matrix : Default (MPEG)
Codec ID : XVID
Codec ID/Hint : XviD
Duration : 52mn 30s
Bit rate : 1 402 Kbps
Width : 704 pixels
Height : 368 pixels
Display aspect ratio : 1.913
Frame rate : 25.000 fps
Resolution : 24 bits
Colorimetry : 4:2:0
Scan type : Progressive
Bits/(Pixel*Frame) : 0.216
Stream size : 527 MiB (91%)
Writing library : XviD 1.2.1 (UTC 2008-12-04)
Audio
Format : MPEG Audio
Format version : Version 1
Format profile : Layer 3
Codec ID : 55
Codec ID/Hint : MP3
Duration : 52mn 30s
Bit rate mode : Constant
Bit rate : 128 Kbps
Channel(s) : 2 channels
Sampling rate : 48.0 KHz
Resolution : 16 bits
Stream size : 48.1 MiB (8%)
Alignment : Split accross interleaves
Interleave, duration : 40 ms (1.00 video frame)
Interleave, preload duration : 500 ms
--          

_________________


Last edited by nsa1977 on 2011-10-01 22:33; edited 2 times in total
Other forum [Profile] [PM]
Display posts from previous:    
Reply to topic

The time now is: Today 13:26

All times are GMT + 3 Hours



You cannot post new topics in this forum
You cannot reply to topics in this forum
You cannot edit your posts in this forum
You cannot delete your posts in this forum
You cannot vote in polls in this forum
You cannot attach files in this forum
You cannot download files in this forum