Today is a free download without charge Download

Nine Inch Nails - Budweiser Made In America Festival 2013 [2013, Industrial rock, industrial metal, HDTV 1080i]

Reply to topic
 
Author
Message

Omen ®

Longevity: 8 years 3 months

Posts: 181087

Торрент-статистика

Post 03-Sep-2013 01:57

[Quote]

Nine Inch Nails - Budweiser Made In America Festival 2013
Жанр: Industrial rock, industrial metal
Продолжительность: 01:34:52
Год выпуска: 2013
Описание:
Budweiser Made In America Festival, Philadelphia, PA, USA
2013-09-01
Set list:
01. Copy Of A
02. Sanctified
03. Came Back Haunted
04. 1,000,000
05. March Of The Pigs
06. Piggy
07. Terrible Lie
08. Burn
09. Closer
10. Gave Up
11. Help Me I Am In Hell
12. Me, I'm Not
13. Find My Way
14. Somewhat Damaged
15. Wish
16. Survivalism
17. Only
18. The Hand That Feeds
19. Head Like A Hole
20. Hurt
Доп. информация: Lineage: Backhaul Satellite Feed
Качество: HDTV 1080i
Контейнер: TS
Видео кодек: H.264
Аудио кодек: MP2
Видео: AVC, 1920*1080, 14.1 Mbps, 29.970 fps
Аудио: MP2, 192 Kbps, 48.0 KHz, 2 channels

Отчёт MediaInfo / BDInfo

GeneralID : 1 (0x1)Complete name : F:\Internet\TORRENTS\Nine Inch Nails - 2013-09-01 - Budweiser Made In America Festival\LIBERTY STAGE 220130901-NIN.tsFormat : MPEG-TSFile size : 9.99 GiBDuration : 1h 34mnOverall bit rate mode : VariableOverall bit rate : 15.1 Mbps
VideoID : 308 (0x134)Menu ID : 1 (0x1)Format : AVCFormat/Info : Advanced Video CodecFormat profile : [email protected] settings, CABAC : YesFormat settings, ReFrames : 4 framesFormat settings, GOP : M=1, N=30Codec ID : 27Duration : 1h 34mnBit rate : 14.1 MbpsWidth : 1 920 pixelsHeight : 1 080 pixelsDisplay aspect ratio : 16:9Frame rate : 29.970 fpsColor space : YUVChroma subsampling : 4:2:0Bit depth : 8 bitsScan type : InterlacedScan order : Top Field FirstBits/(Pixel*Frame) : 0.227Stream size : 9.36 GiB (94%)Color primaries : BT.709Transfer characteristics : BT.709Matrix coefficients : BT.709
AudioID : 256 (0x100)Menu ID : 1 (0x1)Format : MPEG AudioFormat version : Version 1Format profile : Layer 2Codec ID : 3Duration : 1h 34mnBit rate mode : ConstantBit rate : 192 KbpsChannel(s) : 2 channelsSampling rate : 48.0 KHzCompression mode : LossyDelay relative to video : -57msStream size : 130 MiB (1%)Language : English
MenuID : 32 (0x20)Menu ID : 1 (0x1)Duration : 1h 34mnList : 308 (0x134) (AVC) / 256 (0x100) (MPEG Audio, English)Language : / EnglishMaximum bit rate : 200000000

Скриншоты

Other forum [Profile] [PM]
Display posts from previous:    
Reply to topic

The time now is: Today 09:14

All times are GMT + 3 Hours



You cannot post new topics in this forum
You cannot reply to topics in this forum
You cannot edit your posts in this forum
You cannot delete your posts in this forum
You cannot vote in polls in this forum
You cannot attach files in this forum
You cannot download files in this forum