Today is a free download without charge Download

Gin-iro no kami no Agito / Origin: Spirits of the Past / Исток [2006, MV] BDRip 1080p raw+rus

Reply to topic
 
Author
Message

UndegraundMen ®

Longevity: 8 years 11 months

Posts: 25145

Торрент-статистика

Post 02-Sep-2013 05:32

[Quote]

銀色の髪のアギト
Gin-iro no kami no Agito
Origin: Spirits of the Past
Исток
-Жанр: Приключения, фантастика, романтика
Тип: Полнометражный фильм
Продолжительность: 95 мин.
Дата премьеры / период выхода: 07.01.2006
Режиссер: Сугияма Кэйити
Автор оригинала: Иида Уманосукэ
Производство/студия:

Качество видео: BDRip
Видео: AVC, 1920x1080, 23,976 кадра/сек, ~7248 кбит/с
Аудио*: DTS, 48 КГц, 5.1 ch, ~1509 кбит/с Звук: русский (профессиональный многолосый, закадровый). Озвучка: MC Entertaiment
Аудио**: DTS, 48 КГц, 5.1 ch, ~1510 кбит/с Звук: японский.
Тип субтитров: русские и английские в контейнере. Перевод: MC Entertaiment
Описание: Три века назад Лес пробудился, и Луна низвергла на Землю зловещего Зверя. Род людской обратился в ужас... Ныне мир совсем не похож на то, чем он был до катастрофы. Остатки человечества малочисленны и разобщены: часть пытается сосуществовать с Лесом, другая часть ищет способы покорить то, чего не способна понять.
Агито, сын героя, ставит под угрозу уничтожения всех людей, пробудив от векового сна юную Тулу. Увидев, во что превратилась Земля, Тула призывает древнюю технологию, чтобы выстроить новое будущее на останках прежнего мира. Заручившись благословением Леса, Агито должен спасти девушку от самой себя - ведь только так можно уберечь человеческую расу от окончательной гибели.

MediaInfo

Код:
Общее
Уникальный идентификатор                 : 170691561842091095652525171627814441861 (0x8069FFBFD03DEADC8418F28B9D0E5385)
Полное имя                               : S:\torrent\anime\Origin Spirits of the Past.mkv
Формат                                   : Matroska
Версия формата                           : Version 2
Размер файла                             : 6,92 Гбайт
Продолжительность                        : 1 ч. 34 м.
Общий поток                              : 10,5 Мбит/сек
Название фильма                          : Gin-iro no kami no Agito (2006) - Release for HDCLUB by Skazhutin
Дата кодирования                         : UTC 2013-09-01 21:47:50
Программа кодирования                    : mkvmerge v5.8.0 ('No Sleep / Pillow') built on Sep  2 2012 15:37:04
Библиотека кодирования                   : libebml v1.2.3 + libmatroska v1.3.0
Attachment                               : Yes / Yes
Видео
Идентификатор                            : 1
Формат                                   : AVC
Формат/Информация                        : Advanced Video Codec
Профиль формата                          : [url=mailto:[email protected]][email protected][/url]
Параметр CABAC формата                   : Да
Параметр ReFrames формата                : 4 кадра
Режим смешивания                         : Header stripping
Идентификатор кодека                     : V_MPEG4/ISO/AVC
Продолжительность                        : 1 ч. 34 м.
Битрейт                                  : 7284 Кбит/сек
Ширина                                   : 1920 пикселей
Высота                                   : 1080 пикселей
Соотношение сторон                       : 16:9
Режим частоты кадров                     : Постоянный
Частота кадров                           : 23,976 кадра/сек
Цветовое пространство                    : YUV
Субдискретизация насыщенности            : 4:2:0
Битовая глубина                          : 8 бит
Тип развёртки                            : Прогрессивная
Бит/(Пиксели*Кадры)                      : 0.147
Размер потока                            : 4,80 Гбайт (69%)
Заголовок                                : Release for HDCLUB
Библиотека кодирования                   : x264 core 122 r2184kMod 5c85e0a
Настройки программы                      : cabac=1 / ref=4 / deblock=1:-1:-1 / analyse=0x3:0x113 / me=umh / subme=11 / psy=1 / fade_compensate=0.00 / psy_rd=1.00:0.00 / mixed_ref=1 / me_range=48 / chroma_me=1 / trellis=2 / 8x8dct=1 / cqm=0 / deadzone=21,11 / fast_pskip=1 / chroma_qp_offset=-2 / threads=12 / sliced_threads=0 / nr=0 / decimate=1 / interlaced=0 / bluray_compat=0 / constrained_intra=0 / bframes=8 / b_pyramid=2 / b_adapt=2 / b_bias=0 / direct=1 / weightb=1 / open_gop=0 / weightp=2 / keyint=250 / keyint_min=23 / scenecut=40 / intra_refresh=0 / rc_lookahead=60 / rc=crf / mbtree=1 / crf=15.4000 / qcomp=0.70 / qpmin=0 / qpmax=69 / qpstep=4 / vbv_maxrate=50000 / vbv_bufsize=62500 / crf_max=0.0 / nal_hrd=none / ip_ratio=1.40 / aq=2:0.60
Язык                                     : Японский
Default                                  : Да
Forced                                   : Нет
Коэффициенты матрицы                     : BT.709
Аудио #1
Идентификатор                            : 2
Формат                                   : DTS
Формат/Информация                        : Digital Theater Systems
Режим                                    : 16
Параметр Endianness формата              : Big
Режим смешивания                         : Header stripping
Идентификатор кодека                     : A_DTS
Продолжительность                        : 1 ч. 34 м.
Вид битрейта                             : Постоянный
Битрейт                                  : 1509 Кбит/сек
Каналы                                   : 6 каналов
Расположение каналов                     : Front: L C R, Side: L R, LFE
Частота                                  : 48,0 КГц
Битовая глубина                          : 16 бит
Метод сжатия                             : С потерями
Размер потока                            : 1018 Мбайт (14%)
Заголовок                                : DTS 5.1 @ 1536 kbps - Многоголосный, MC Entertaiment
Язык                                     : Русский
Default                                  : Да
Forced                                   : Нет
Аудио #2
Идентификатор                            : 3
Формат                                   : DTS
Формат/Информация                        : Digital Theater Systems
Режим                                    : 16
Параметр Endianness формата              : Big
Режим смешивания                         : Header stripping
Идентификатор кодека                     : A_DTS
Продолжительность                        : 1 ч. 34 м.
Вид битрейта                             : Постоянный
Битрейт                                  : 1510 Кбит/сек
Каналы                                   : 6 каналов
Расположение каналов                     : Front: L C R, Side: L R, LFE
Частота                                  : 48,0 КГц
Битовая глубина                          : 24 бит
Метод сжатия                             : С потерями
Размер потока                            : 1018 Мбайт (14%)
Заголовок                                : DTS 5.1 @ 1536 kbps
Язык                                     : Японский
Default                                  : Нет
Forced                                   : Нет
Текст #1
Идентификатор                            : 4
Формат                                   : UTF-8
Идентификатор кодека                     : S_TEXT/UTF8
Идентификатор кодека/Информация          : UTF-8 Plain Text
Заголовок                                : MC Entertaiment
Язык                                     : Русский
Default                                  : Нет
Forced                                   : Нет
Текст #2
Идентификатор                            : 5
Формат                                   : UTF-8
Идентификатор кодека                     : S_TEXT/UTF8
Идентификатор кодека/Информация          : UTF-8 Plain Text
Язык                                     : Английский
Default                                  : Нет
Forced                                   : Нет
Меню
00:00:00.000                             : en:Chapter 1
00:10:31.128                             : en:Chapter 2
00:16:33.491                             : en:Chapter 3
00:22:04.323                             : en:Chapter 4
00:27:43.661                             : en:Chapter 5
00:35:38.219                             : en:Chapter 6
00:42:48.606                             : en:Chapter 7
00:48:18.268                             : en:Chapter 8
00:54:38.858                             : en:Chapter 9
00:59:50.586                             : en:Chapter 10
01:05:44.773                             : en:Chapter 11
01:11:11.307                             : en:Chapter 12
01:15:01.622                             : en:Chapter 13
01:19:51.869                             : en:Chapter 14
01:26:07.162                             : en:Chapter 15
01:28:09.283                             : en:Chapter 16
Ссылки:
Ani-DB ::: World Art
Скриншоты:
         
Время раздачи: По мере возможности
Other forum [Profile] [PM]
Display posts from previous:    
Reply to topic

The time now is: Today 12:37

All times are GMT + 3 Hours



You cannot post new topics in this forum
You cannot reply to topics in this forum
You cannot edit your posts in this forum
You cannot delete your posts in this forum
You cannot vote in polls in this forum
You cannot attach files in this forum
You cannot download files in this forum