Today is a free download without charge Download

[Claymore / Клеймор][FLAC (tracks)][lossless][OST][5CD/1DVD]

Reply to topic
 
Author
Message

Omen ®

Longevity: 9 years

Posts: 181086

Торрент-статистика

Post 02-Sep-2013 01:10

[Quote]

КлейморОбщие характеристики:
Производство:
Год выпуска: 2007-2008
Формат: FLAC
Частота: 44100Гц
Продолжительность: 63 треков - 3:09:05
-Альбомы:

Открыть

2007 - Character Song Collection

Character Song Collection
Список треков:
01. Kioku [4:50]
02. Henbou [4:43]
03. Hangyaku [5:04]
04. Kakusei [4:09]
05. Zouo [3:47]
06. Shippu [3:42]
07. Eien [5:17]
08. Tensei [4:34]
09. Doukou [4:49]
10. Gen'ei [4:19]-

2007 - OST

OST
Список треков:
01. Ginme no Majo [2:43]
02. Ooki na Tsurugi [1:44]
03. Youma no Okite [2:21]
04. Sabaku to Kaze [1:45]
05. Kirisaku Monotachi [2:20]
06. Osoroshiki Fujin [1:11]
07. Bishou no Teresa [1:52]
08. Kanashiki Shukumei [1:10]
09. Kakusei no Kodou [1:25]
10. Seikan Naru Tatakai [2:07]
11. Shinpi to Shin'en [1:40]
12. Yobikakeru Kioku [2:39]
13. Kita no Chi to Hakugin no Ou [1:29]
14. Hateshinaki Tabiji [1:21]
15. Kyoujin na Chikara [1:20]
16. Kouya no Rakujitsu [1:35]
17. Kokoro no Kizuato [2:17]
18. Doukei [1:47]
19. Machinami [1:35]
20. Den'en to Ogawa [1:48]
21. Utsukushiki Kariudotachi [1:37]
22. Youshiki Mono no Shukumei [1:47]
23. Kyousenshi [1:56]
24. Kakusei he no Midare [1:06]
25. Souzetsu na Shitou [1:44]
26. Erabareshi Mono [1:49]
27. Haruka na Doutei [1:05]
28. Itoshisa to Nukumori [1:35]
29. Chiheisen no Kanata [2:00]
30. Ishidukuri no Yanami [1:42]
31. Nin wo Omou Koto [1:55]
32. Fukaki Mori no Naka de [1:56]
33. Raison d'etre (TV Sized) [1:03]
34. Danzai no Hana ~Guilty Sky~ (TV Sized) [1:10]-
-Синглы:

Открыть

2007 - OP

OP
Список треков:
01. Raison D'etre [3:52]
02. Jojouteki ni Sugita Jikan to Fukakutei na Mirai e no Requiem [4:46]
03. Criminal Baby [3:37]-

2007 - ED

ED
Список треков:
01. Danzai no Hana ~Guilty Sky~ [4:21]
02. Ignore [4:37]
03. Danzai no Hana ~Guilty Sky~ (English Ver.) [4:21]
04. Danzai no Hana ~Guilty Sky~ (Instrumental) [4:21]
05. Ignore (instrumental) [4:35]-
-Исполнитель:

Riyu Kosaka

2008 - Every Struggle
Список треков:
01. M.O.N.S.T.E.R [4:01]
02. Danzai no Hana ~Guilty Sky~ [4:21]
03. Hakushi [5:06]
04. Dober Man [5:21]
05. Memory [4:48]
06. 3D Heart [3:59]
07. Platinum Smile [5:22]
08. Kokoro no Ato [4:30]
09. The Eastern Sky [5:27]
10. Sunny the Ride [3:44]
11. Every Struggle [4:11]-
-Проверка:

Открыть

2007 - Character Song Collection

ЕАС Лог

Exact Audio Copy V1.0 beta 3 from 29. August 2011
EAC extraction logfile from 23. March 2013, 20:23
- / Claymore Character Song Collection
Used drive : PLEXTOR CD-R PREMIUM2 Adapter: 0 ID: 0
Read mode : SecureUtilize accurate stream : YesDefeat audio cache : YesMake use of C2 pointers : No
Read offset correction : 30Overread into Lead-In and Lead-Out : YesFill up missing offset samples with silence : YesDelete leading and trailing silent blocks : NoNull samples used in CRC calculations : YesUsed interface : Native Win32 interface for Win NT & 2000Gap handling : Appended to previous track
Used output format : User Defined EncoderSelected bitrate : 1024 kBit/sQuality : HighAdd ID3 tag : NoCommand line compressor : C:\Program Files (x86)\Exact Audio Copy\Flac\flac.exeAdditional command line options : -V -8 -T "Genre=%genre%" -T "Artist=%artist%" -T "Title=%title%" -T "Album=%albumtitle%" -T "Date=%year%" -T "Tracknumber=%tracknr%" -T "Comment=%comment%" %source%
TOC of the extracted CD
Track | Start | Length | Start sector | End sector --------------------------------------------------------- 1 | 0:00.00 | 4:49.60 | 0 | 21734 2 | 4:49.60 | 4:42.72 | 21735 | 42956 3 | 9:32.57 | 5:03.55 | 42957 | 65736 4 | 14:36.37 | 4:08.44 | 65737 | 84380 5 | 18:45.06 | 3:47.26 | 84381 | 101431 6 | 22:32.32 | 3:41.73 | 101432 | 118079 7 | 26:14.30 | 5:16.54 | 118080 | 141833 8 | 31:31.09 | 4:34.32 | 141834 | 162415 9 | 36:05.41 | 4:48.69 | 162416 | 184084 10 | 40:54.35 | 4:18.56 | 184085 | 203490
Track 1
Filename C:\RIPs\01 - Kioku.wav
Pre-gap length 0:00:02.00
Peak level 99.9 % Extraction speed 8.5 X Track quality 99.9 % Test CRC 0D486BD7 Copy CRC 0D486BD7 Track not present in AccurateRip database Copy OK
Track 2
Filename C:\RIPs\02 - Henbou.wav
Peak level 99.9 % Extraction speed 9.8 X Track quality 100.0 % Test CRC 0FAF66D0 Copy CRC 0FAF66D0 Track not present in AccurateRip database Copy OK
Track 3
Filename C:\RIPs\03 - Hangyaku.wav
Peak level 99.9 % Extraction speed 10.7 X Track quality 100.0 % Test CRC 6FFC0D5A Copy CRC 6FFC0D5A Track not present in AccurateRip database Copy OK
Track 4
Filename C:\RIPs\04 - Kakusei.wav
Peak level 99.9 % Extraction speed 11.3 X Track quality 100.0 % Test CRC 245003A4 Copy CRC 245003A4 Track not present in AccurateRip database Copy OK
Track 5
Filename C:\RIPs\05 - Zouo.wav
Peak level 99.9 % Extraction speed 11.7 X Track quality 100.0 % Test CRC 96B90CA2 Copy CRC 96B90CA2 Track not present in AccurateRip database Copy OK
Track 6
Filename C:\RIPs\06 - Shippu.wav
Peak level 99.9 % Extraction speed 12.2 X Track quality 100.0 % Test CRC CD19F204 Copy CRC CD19F204 Track not present in AccurateRip database Copy OK
Track 7
Filename C:\RIPs\07 - Eien.wav
Peak level 99.9 % Extraction speed 12.3 X Track quality 99.9 % Test CRC CD0247FF Copy CRC CD0247FF Track not present in AccurateRip database Copy OK
Track 8
Filename C:\RIPs\08 - Tensei.wav
Peak level 99.9 % Extraction speed 13.6 X Track quality 100.0 % Test CRC 9C844AF8 Copy CRC 9C844AF8 Track not present in AccurateRip database Copy OK
Track 9
Filename C:\RIPs\09 - Doukou.wav
Peak level 99.9 % Extraction speed 14.1 X Track quality 100.0 % Test CRC AD5E1F5C Copy CRC AD5E1F5C Track not present in AccurateRip database Copy OK
Track 10
Filename C:\RIPs\10 - Gen'ei.wav
Peak level 99.9 % Extraction speed 14.1 X Track quality 100.0 % Test CRC DC38AACB Copy CRC DC38AACB Track not present in AccurateRip database Copy OK
None of the tracks are present in the AccurateRip database
No errors occurred
End of status report
---- CUETools DB Plugin V2.1.4
[CTDB TOCID: O0e5GQQiMV8iUQVrdkXS8h1LuEM-] disk not present in databaseSubmit result: O0e5GQQiMV8iUQVrdkXS8h1LuEM- has been uploaded
==== Log checksum 050B689AB206CC6A976EA7DBE067EB269E7004BBF75E61BE6B9C0AC2459E3474 ====

auCDtect Лог

-----------------------
DON'T MODIFY THIS FILE
-----------------------
PERFORMER: auCDtect Task Manager, ver. 1.5.1RC6 build 1.5.1.7Copyright (c) 2008-2010 y-soft. All rights reservedhttp://y-soft.org
ANALYZER: auCDtect: CD records authenticity detector, version 0.8.2Copyright (c) 2004 Oleg Berngardt. All rights reserved.Copyright (c) 2004 Alexander Djourik. All rights reserved.
FILE: 09 - Doukou.flac Size: 40129218 Hash: 3828C8CF57C6A67E601D988B67AD2059 Accuracy: -m0 Conclusion: CDDA 100% Signature: 9AA518FDD26F6B60FD202A7CDB764F5640970722FILE: 10 - Gen'ei.flac Size: 28261552 Hash: 944FF8CE37866514B72C706D779AD6F5 Accuracy: -m0 Conclusion: CDDA 99% Signature: DCCB26E3D5C53D9B9D834E3265C1120B8451BA1FFILE: 01 - Kioku.flac Size: 36106466 Hash: 7CD684D163A9B1444C7BB4BB6A9111B3 Accuracy: -m0 Conclusion: CDDA 100% Signature: 58A4516ABA2F198B9A578DE0A933D22CCCB8001BFILE: 02 - Henbou.flac Size: 38118680 Hash: 29BAB6A124C13CB3253A893535768F41 Accuracy: -m0 Conclusion: CDDA 100% Signature: 5CCC8977DBF54FCC09E3B8520CC1190E49D0A484FILE: 03 - Hangyaku.flac Size: 38585500 Hash: 5525C94D85F1D879BE44B4FBCFF3AC90 Accuracy: -m0 Conclusion: CDDA 100% Signature: 3D9D04193F936A8C14FCA7A96C817623EEE28518FILE: 04 - Kakusei.flac Size: 33056757 Hash: 9A2B0A8E5988F58B3C1F1699EC7E5F10 Accuracy: -m0 Conclusion: CDDA 100% Signature: 13E38794FA3ED626BB804E6C04DDAF7E2488CD0AFILE: 05 - Zouo.flac Size: 29962348 Hash: 83984F67158B5CFE35B6EE40CEF3FFF6 Accuracy: -m0 Conclusion: CDDA 100% Signature: 3665426AE631630587631207BA510382BBF10CC0FILE: 06 - Shippu.flac Size: 31059277 Hash: 4109E8E36EC9D6AB97850C7F93655DA3 Accuracy: -m0 Conclusion: CDDA 100% Signature: 1E8FD0E920D56A1DA57E05CE8DCADB6B511BB65BFILE: 07 - Eien.flac Size: 41389259 Hash: 957AB4713DB6DB1818A8622751410C6F Accuracy: -m0 Conclusion: CDDA 100% Signature: 5CBCF9AFA37BB39F97BACB21AF82C63645ADC2DEFILE: 08 - Tensei.flac Size: 31909436 Hash: 2F590FF9DA2D7E102EC8ABB9BEEDFF22 Accuracy: -m0 Conclusion: CDDA 99% Signature: 609338A2BE8444C7964E271E797CC4BFCC05D5BC

Audition Спектр

2007 - OST

ЕАС Лог

Exact Audio Copy V1.0 beta 3 from 29. August 2011
EAC extraction logfile from 24. March 2013, 14:27
- / Claymore OST
Used drive : PLEXTOR CD-R PREMIUM2 Adapter: 0 ID: 0
Read mode : SecureUtilize accurate stream : YesDefeat audio cache : YesMake use of C2 pointers : No
Read offset correction : 30Overread into Lead-In and Lead-Out : YesFill up missing offset samples with silence : YesDelete leading and trailing silent blocks : NoNull samples used in CRC calculations : YesUsed interface : Native Win32 interface for Win NT & 2000Gap handling : Appended to previous track
Used output format : User Defined EncoderSelected bitrate : 1024 kBit/sQuality : HighAdd ID3 tag : NoCommand line compressor : C:\Program Files (x86)\Exact Audio Copy\Flac\flac.exeAdditional command line options : -V -8 -T "Genre=%genre%" -T "Artist=%artist%" -T "Title=%title%" -T "Album=%albumtitle%" -T "Date=%year%" -T "Tracknumber=%tracknr%" -T "Comment=%comment%" %source%
TOC of the extracted CD
Track | Start | Length | Start sector | End sector --------------------------------------------------------- 1 | 0:00.00 | 2:43.33 | 0 | 12257 2 | 2:43.33 | 1:44.27 | 12258 | 20084 3 | 4:27.60 | 2:21.03 | 20085 | 30662 4 | 6:48.63 | 1:44.50 | 30663 | 38512 5 | 8:33.38 | 2:19.65 | 38513 | 49002 6 | 10:53.28 | 1:11.10 | 49003 | 54337 7 | 12:04.38 | 1:52.04 | 54338 | 62741 8 | 13:56.42 | 1:09.58 | 62742 | 67974 9 | 15:06.25 | 1:24.72 | 67975 | 74346 10 | 16:31.22 | 2:06.51 | 74347 | 83847 11 | 18:37.73 | 1:40.27 | 83848 | 91374 12 | 20:18.25 | 2:39.35 | 91375 | 103334 13 | 22:57.60 | 1:28.43 | 103335 | 109977 14 | 24:26.28 | 1:21.07 | 109978 | 116059 15 | 25:47.35 | 1:19.43 | 116060 | 122027 16 | 27:07.03 | 1:35.37 | 122028 | 129189 17 | 28:42.40 | 2:16.50 | 129190 | 139439 18 | 30:59.15 | 1:46.38 | 139440 | 147427 19 | 32:45.53 | 1:34.44 | 147428 | 154521 20 | 34:20.22 | 1:48.10 | 154522 | 162631 21 | 36:08.32 | 1:36.45 | 162632 | 169876 22 | 37:45.02 | 1:46.58 | 169877 | 177884 23 | 39:31.60 | 1:56.28 | 177885 | 186612 24 | 41:28.13 | 1:05.67 | 186613 | 191554 25 | 42:34.05 | 1:44.35 | 191555 | 199389 26 | 44:18.40 | 1:48.62 | 199390 | 207551 27 | 46:07.27 | 1:05.13 | 207552 | 212439 28 | 47:12.40 | 1:35.07 | 212440 | 219571 29 | 48:47.47 | 1:59.45 | 219572 | 228541 30 | 50:47.17 | 1:41.45 | 228542 | 236161 31 | 52:28.62 | 1:55.20 | 236162 | 244806 32 | 54:24.07 | 1:56.03 | 244807 | 253509 33 | 56:20.10 | 1:03.15 | 253510 | 258249 34 | 57:23.25 | 1:09.66 | 258250 | 263490
Track 1
Filename C:\RIPs\01 - Ginme no Majo.wav
Pre-gap length 0:00:02.00
Peak level 96.0 % Extraction speed 8.4 X Track quality 100.0 % Test CRC 43CE71FC Copy CRC 43CE71FC Accurately ripped (confidence 2) [FB201CB6] (AR v1) Copy OK
Track 2
Filename C:\RIPs\02 - Ooki na Tsurugi.wav
Pre-gap length 0:00:02.45
Peak level 96.4 % Extraction speed 8.4 X Track quality 100.0 % Test CRC F80BA0FA Copy CRC F80BA0FA Accurately ripped (confidence 2) [E88B0643] (AR v1) Copy OK
Track 3
Filename C:\RIPs\03 - Youma no Okite.wav
Pre-gap length 0:00:02.45
Peak level 95.2 % Extraction speed 9.1 X Track quality 100.0 % Test CRC 8C28B986 Copy CRC 8C28B986 Accurately ripped (confidence 2) [6A8B496B] (AR v1) Copy OK
Track 4
Filename C:\RIPs\04 - Sabaku to Kaze.wav
Pre-gap length 0:00:02.44
Peak level 96.9 % Extraction speed 9.1 X Track quality 100.0 % Test CRC 0F71EED6 Copy CRC 0F71EED6 Accurately ripped (confidence 2) [0EDA25C4] (AR v1) Copy OK
Track 5
Filename C:\RIPs\05 - Kirisaku Monotachi.wav
Pre-gap length 0:00:02.44
Peak level 96.6 % Extraction speed 9.6 X Track quality 100.0 % Test CRC 94361CA5 Copy CRC 94361CA5 Accurately ripped (confidence 2) [087FB232] (AR v1) Copy OK
Track 6
Filename C:\RIPs\06 - Osoroshiki Fujin.wav
Pre-gap length 0:00:02.46
Peak level 93.8 % Extraction speed 8.9 X Track quality 100.0 % Test CRC AD508C5F Copy CRC AD508C5F Accurately ripped (confidence 2) [2AF5CF7B] (AR v1) Copy OK
Track 7
Filename C:\RIPs\07 - Bishou no Teresa.wav
Pre-gap length 0:00:02.44
Peak level 95.9 % Extraction speed 9.9 X Track quality 100.0 % Test CRC 6DFBD635 Copy CRC 6DFBD635 Accurately ripped (confidence 2) [AA1A05D9] (AR v1) Copy OK
Track 8
Filename C:\RIPs\08 - Kanashiki Shukumei.wav
Pre-gap length 0:00:02.45
Peak level 86.1 % Extraction speed 9.5 X Track quality 100.0 % Test CRC 683FEA84 Copy CRC 683FEA84 Accurately ripped (confidence 2) [20AF56FE] (AR v1) Copy OK
Track 9
Filename C:\RIPs\09 - Kakusei no Kodou.wav
Pre-gap length 0:00:02.44
Peak level 98.7 % Extraction speed 8.2 X Track quality 99.8 % Test CRC 89448D39 Copy CRC 89448D39 Accurately ripped (confidence 2) [AA3AFD0A] (AR v1) Copy OK
Track 10
Filename C:\RIPs\10 - Seikan Naru Tatakai.wav
Pre-gap length 0:00:02.44
Peak level 95.8 % Extraction speed 10.6 X Track quality 100.0 % Test CRC 792F749C Copy CRC 792F749C Accurately ripped (confidence 2) [F4385FED] (AR v1) Copy OK
Track 11
Filename C:\RIPs\11 - Shinpi to Shin'en.wav
Pre-gap length 0:00:02.44
Peak level 80.7 % Extraction speed 10.4 X Track quality 100.0 % Test CRC 6CB28A03 Copy CRC 6CB28A03 Accurately ripped (confidence 2) [6180D2FC] (AR v1) Copy OK
Track 12
Filename C:\RIPs\12 - Yobikakeru Kioku.wav
Pre-gap length 0:00:02.43
Peak level 99.9 % Extraction speed 11.5 X Track quality 100.0 % Test CRC 9E8D907D Copy CRC 9E8D907D Accurately ripped (confidence 2) [178F6D33] (AR v1) Copy OK
Track 13
Filename C:\RIPs\13 - Kita no Chi to Hakugin no Ou.wav
Pre-gap length 0:00:02.44
Peak level 96.8 % Extraction speed 10.7 X Track quality 100.0 % Test CRC 554830B1 Copy CRC 554830B1 Accurately ripped (confidence 2) [0FCE0B62] (AR v1) Copy OK
Track 14
Filename C:\RIPs\14 - Hateshinaki Tabiji.wav
Pre-gap length 0:00:02.44
Peak level 70.2 % Extraction speed 10.6 X Track quality 100.0 % Test CRC 62D10F86 Copy CRC 62D10F86 Accurately ripped (confidence 2) [079DFE30] (AR v1) Copy OK
Track 15
Filename C:\RIPs\15 - Kyoujin na Chikara.wav
Pre-gap length 0:00:02.45
Peak level 96.2 % Extraction speed 10.8 X Track quality 100.0 % Test CRC E8128114 Copy CRC E8128114 Accurately ripped (confidence 2) [E2A9A378] (AR v1) Copy OK
Track 16
Filename C:\RIPs\16 - Kouya no Rakujitsu.wav
Pre-gap length 0:00:02.45
Peak level 97.6 % Extraction speed 11.3 X Track quality 100.0 % Test CRC FA5E6ED3 Copy CRC FA5E6ED3 Accurately ripped (confidence 2) [46CB116B] (AR v1) Copy OK
Track 17
Filename C:\RIPs\17 - Kokoro no Kizuato.wav
Pre-gap length 0:00:02.43
Peak level 84.6 % Extraction speed 12.1 X Track quality 100.0 % Test CRC 16AF8AED Copy CRC 16AF8AED Accurately ripped (confidence 2) [338BD432] (AR v1) Copy OK
Track 18
Filename C:\RIPs\18 - Doukei.wav
Pre-gap length 0:00:01.53
Peak level 96.5 % Extraction speed 11.9 X Track quality 100.0 % Test CRC 84D8691A Copy CRC 84D8691A Accurately ripped (confidence 2) [37C8021C] (AR v1) Copy OK
Track 19
Filename C:\RIPs\19 - Machinami.wav
Pre-gap length 0:00:02.46
Peak level 93.5 % Extraction speed 9.8 X Track quality 99.8 % Test CRC 8A9A3A3F Copy CRC 8A9A3A3F Accurately ripped (confidence 2) [CAFA0B83] (AR v1) Copy OK
Track 20
Filename C:\RIPs\20 - Den'en to Ogawa.wav
Pre-gap length 0:00:02.43
Peak level 93.4 % Extraction speed 12.2 X Track quality 100.0 % Test CRC 88F4917B Copy CRC 88F4917B Accurately ripped (confidence 2) [D2428031] (AR v1) Copy OK
Track 21
Filename C:\RIPs\21 - Utsukushiki Kariudotachi.wav
Pre-gap length 0:00:02.42
Peak level 87.9 % Extraction speed 10.0 X Track quality 99.8 % Test CRC 13D4CEB1 Copy CRC 13D4CEB1 Accurately ripped (confidence 2) [22DB378D] (AR v1) Copy OK
Track 22
Filename C:\RIPs\22 - Youshiki Mono no Shukumei.wav
Pre-gap length 0:00:02.45
Peak level 95.0 % Extraction speed 12.2 X Track quality 100.0 % Test CRC 9D01A1A6 Copy CRC 9D01A1A6 Accurately ripped (confidence 2) [3E5730B7] (AR v1) Copy OK
Track 23
Filename C:\RIPs\23 - Kyousenshi.wav
Pre-gap length 0:00:02.45
Peak level 100.0 % Extraction speed 12.6 X Track quality 100.0 % Test CRC 5DBC2D4C Copy CRC 5DBC2D4C Accurately ripped (confidence 2) [E761CB5F] (AR v1) Copy OK
Track 24
Filename C:\RIPs\24 - Kakusei he no Midare.wav
Peak level 94.9 % Extraction speed 11.1 X Track quality 100.0 % Test CRC BBF10DF6 Copy CRC BBF10DF6 Accurately ripped (confidence 2) [273501D3] (AR v1) Copy OK
Track 25
Filename C:\RIPs\25 - Souzetsu na Shitou.wav
Peak level 100.0 % Extraction speed 12.3 X Track quality 100.0 % Test CRC 9A5A1D4C Copy CRC 9A5A1D4C Accurately ripped (confidence 2) [5EC051FD] (AR v1) Copy OK
Track 26
Filename C:\RIPs\26 - Erabareshi Mono.wav
Pre-gap length 0:00:02.45
Peak level 89.0 % Extraction speed 12.5 X Track quality 100.0 % Test CRC E404B65B Copy CRC E404B65B Accurately ripped (confidence 2) [42C761BC] (AR v1) Copy OK
Track 27
Filename C:\RIPs\27 - Haruka na Doutei.wav
Pre-gap length 0:00:02.45
Peak level 94.3 % Extraction speed 11.1 X Track quality 100.0 % Test CRC A3F60729 Copy CRC A3F60729 Accurately ripped (confidence 2) [B44ACC87] (AR v1) Copy OK
Track 28
Filename C:\RIPs\28 - Itoshisa to Nukumori.wav
Pre-gap length 0:00:02.43
Peak level 93.6 % Extraction speed 12.2 X Track quality 100.0 % Test CRC 0FB9932E Copy CRC 0FB9932E Accurately ripped (confidence 2) [EDE29592] (AR v1) Copy OK
Track 29
Filename C:\RIPs\29 - Chiheisen no Kanata.wav
Pre-gap length 0:00:02.43
Peak level 81.5 % Extraction speed 12.9 X Track quality 100.0 % Test CRC C2295DFA Copy CRC C2295DFA Accurately ripped (confidence 2) [AE733068] (AR v1) Copy OK
Track 30
Filename C:\RIPs\30 - Ishidukuri no Yanami.wav
Pre-gap length 0:00:02.45
Peak level 95.1 % Extraction speed 10.3 X Track quality 99.8 % Test CRC 95E89A59 Copy CRC 95E89A59 Accurately ripped (confidence 2) [03A9E36C] (AR v1) Copy OK
Track 31
Filename C:\RIPs\31 - Nin wo Omou Koto.wav
Pre-gap length 0:00:02.43
Peak level 94.4 % Extraction speed 12.8 X Track quality 100.0 % Test CRC 265E0496 Copy CRC 265E0496 Accurately ripped (confidence 2) [D87E4E1D] (AR v1) Copy OK
Track 32
Filename C:\RIPs\32 - Fukaki Mori no Naka de.wav
Pre-gap length 0:00:02.44
Peak level 63.9 % Extraction speed 12.9 X Track quality 100.0 % Test CRC DFEF6BBA Copy CRC DFEF6BBA Accurately ripped (confidence 2) [6374377D] (AR v1) Copy OK
Track 33
Filename C:\RIPs\33 - Raison d'etre (TV Sized).wav
Pre-gap length 0:00:02.44
Peak level 98.8 % Extraction speed 11.2 X Track quality 100.0 % Test CRC 257D8C30 Copy CRC 257D8C30 Accurately ripped (confidence 2) [0EE7DB63] (AR v1) Copy OK
Track 34
Filename C:\RIPs\34 - Danzai no Hana ~Guilty Sky~ (TV Sized).wav
Peak level 100.0 % Extraction speed 11.5 X Track quality 100.0 % Test CRC 01A89468 Copy CRC 01A89468 Accurately ripped (confidence 2) [ED4F0C09] (AR v1) Copy OK
All tracks accurately ripped
No errors occurred
End of status report
---- CUETools DB Plugin V2.1.4
[CTDB TOCID: Pe64ivuIIog6.ZsI7t6BHjOkdJs-] foundSubmit result: Pe64ivuIIog6.ZsI7t6BHjOkdJs- has been confirmedTrack | CTDB Status 1 | (1/1) Accurately ripped 2 | (1/1) Accurately ripped 3 | (1/1) Accurately ripped 4 | (1/1) Accurately ripped 5 | (1/1) Accurately ripped 6 | (1/1) Accurately ripped 7 | (1/1) Accurately ripped 8 | (1/1) Accurately ripped 9 | (1/1) Accurately ripped 10 | (1/1) Accurately ripped 11 | (1/1) Accurately ripped 12 | (1/1) Accurately ripped 13 | (1/1) Accurately ripped 14 | (1/1) Accurately ripped 15 | (1/1) Accurately ripped 16 | (1/1) Accurately ripped 17 | (1/1) Accurately ripped 18 | (1/1) Accurately ripped 19 | (1/1) Accurately ripped 20 | (1/1) Accurately ripped 21 | (1/1) Accurately ripped 22 | (1/1) Accurately ripped 23 | (1/1) Accurately ripped 24 | (1/1) Accurately ripped 25 | (1/1) Accurately ripped 26 | (1/1) Accurately ripped 27 | (1/1) Accurately ripped 28 | (1/1) Accurately ripped 29 | (1/1) Accurately ripped 30 | (1/1) Accurately ripped 31 | (1/1) Accurately ripped 32 | (1/1) Accurately ripped 33 | (1/1) Accurately ripped 34 | (1/1) Accurately ripped
==== Log checksum 0CB04F6D22199AD44E0E5762AA7ED5427A9CF3AB2536ECCE94762ED8D521B967 ====

auCDtect Лог

-----------------------
DON'T MODIFY THIS FILE
-----------------------
PERFORMER: auCDtect Task Manager, ver. 1.5.1RC6 build 1.5.1.7Copyright (c) 2008-2010 y-soft. All rights reservedhttp://y-soft.org
ANALYZER: auCDtect: CD records authenticity detector, version 0.8.2Copyright (c) 2004 Oleg Berngardt. All rights reserved.Copyright (c) 2004 Alexander Djourik. All rights reserved.
FILE: 30 - Ishidukuri no Yanami.flac Size: 9537570 Hash: 2DE12A106446621A17BFAC2A9FD03F65 Accuracy: -m0 Conclusion: CDDA 100% Signature: 3E8992DB6594E468FE0B796C68DBB184079EEF6FFILE: 31 - Nin wo Omou Koto.flac Size: 9063637 Hash: 28C376BBAD5C812959F3BADB1D212339 Accuracy: -m0 Conclusion: CDDA 100% Signature: 36A6F41C74AF633E34F3BA2B073B58FD31DD55A1FILE: 32 - Fukaki Mori no Naka de.flac Size: 6221689 Hash: 99FBD10B8E6BFC87B0F519E8BB2F8D52 Accuracy: -m0 Conclusion: CDDA 100% Signature: 50818E865AFDC04D31A824B375406E27743A2517FILE: 33 - Raison d'etre (TV Sized).flac Size: 7667041 Hash: E7E7F95D5F17D6C7F8EB5134EE373885 Accuracy: -m0 Conclusion: CDDA 100% Signature: F157B426BFE648877459AC018C65039E6E2FC821FILE: 34 - Danzai no Hana ~Guilty Sky~ (TV Sized).flac Size: 9449606 Hash: 270F8B0E4E72E21F0AFA6497676C5FCE Accuracy: -m0 Conclusion: CDDA 100% Signature: 5CEF06CF1C335A0754178A8C0B76778771A3B580FILE: 01 - Ginme no Majo.flac Size: 19090848 Hash: 62C061DD929D0469AF395DBDC94FB83D Accuracy: -m0 Conclusion: CDDA 100% Signature: 5A9D56D180A6CB9A99AD6AFC4B2B4CB54517EB91FILE: 02 - Ooki na Tsurugi.flac Size: 11828126 Hash: DF33B4E63E293947CA98246B064DBC81 Accuracy: -m0 Conclusion: CDDA 100% Signature: 5D7A674304C3F4F9D75A2E52EE28E6F958A8549FFILE: 03 - Youma no Okite.flac Size: 12058149 Hash: E05340C4884D227764024317EB819F44 Accuracy: -m0 Conclusion: CDDA 100% Signature: 5C54AFFAEE736A612A18789CAD5A768EA004BD71FILE: 04 - Sabaku to Kaze.flac Size: 10868052 Hash: 62DD4496A777B7D47263E541A5F0B2CE Accuracy: -m0 Conclusion: CDDA 100% Signature: 491554F2B42F2424E9E45CD89F19D2257DAF955AFILE: 05 - Kirisaku Monotachi.flac Size: 16851584 Hash: 2F11A8BB9ADD20F2832B019C54718F92 Accuracy: -m0 Conclusion: CDDA 99% Signature: 7C756711B3B71283814EB4F0221B64C4062789B6FILE: 06 - Osoroshiki Fujin.flac Size: 6385090 Hash: C52022BAE991A16838DE2064A9169AF6 Accuracy: -m0 Conclusion: CDDA 100% Signature: 920F7AD5A40D379ED5171C4E709330D0FAC48494FILE: 07 - Bishou no Teresa.flac Size: 11043189 Hash: F1AEF7FD0A81C98EE08E94062965AF2F Accuracy: -m0 Conclusion: CDDA 100% Signature: 8F1849A26C6A3787F4A7304FA845EB55648B018CFILE: 08 - Kanashiki Shukumei.flac Size: 5715336 Hash: 6B4C322344E920459F2CA64E01272263 Accuracy: -m0 Conclusion: CDDA 100% Signature: 51C672D5BE89F05265E73FFF2AC034EC3B2FF114FILE: 09 - Kakusei no Kodou.flac Size: 8180285 Hash: 7370AE6FB6655CF3C544B1FD28E7F095 Accuracy: -m0 Conclusion: CDDA 100% Signature: 3B5AE1A65BD202771F15B3A1EA09A7ACDDF924EEFILE: 10 - Seikan Naru Tatakai.flac Size: 13529084 Hash: 30B18CD59CBEEF9298C1F2EFBC60DF63 Accuracy: -m0 Conclusion: CDDA 100% Signature: 8AE805E38982FA8766DE031DFD97A80849F3537BFILE: 11 - Shinpi to Shin'en.flac Size: 8276387 Hash: 415B427554C96E1EB4CEDB86F400841C Accuracy: -m0 Conclusion: CDDA 100% Signature: E76D2BF63DC0CB0087D4191E67171C17036B20CFFILE: 12 - Yobikakeru Kioku.flac Size: 14738446 Hash: B757555DA0B0D80CAB7A09009F032E1F Accuracy: -m0 Conclusion: CDDA 100% Signature: B2B001CFC49051F960CC0E0304BDC86A5B5078E3FILE: 13 - Kita no Chi to Hakugin no Ou.flac Size: 9377335 Hash: B5861AD974D9371AE9585EEE91434FB8 Accuracy: -m0 Conclusion: CDDA 100% Signature: F07D8485535A66D66B377980D0CAD56382F3F557FILE: 14 - Hateshinaki Tabiji.flac Size: 6589555 Hash: 6E7FC59DFA8369C336B549395C7C786F Accuracy: -m0 Conclusion: CDDA 100% Signature: 5661BFBCB5FDF0DF20F89628C1A008FC8BA8EC27FILE: 15 - Kyoujin na Chikara.flac Size: 6755182 Hash: E9BFDD3F09AAE46CC627BC9D027487D1 Accuracy: -m0 Conclusion: CDDA 100% Signature: 869AC28696826D3904D40E4CB9F350DE47F9EDBEFILE: 16 - Kouya no Rakujitsu.flac Size: 8825668 Hash: 3161951E5DA607CC048BAA68CA4343AF Accuracy: -m0 Conclusion: CDDA 100% Signature: 3BD1931E46D6CF14AD0FC1E6B1DDD55416B5D643FILE: 17 - Kokoro no Kizuato.flac Size: 10063990 Hash: 67D51CC2F6C017368138FA21EFB4C0CF Accuracy: -m0 Conclusion: CDDA 100% Signature: AB5D6CC9FF35F87EE051F46153A7D2D6CED62A09FILE: 18 - Doukei.flac Size: 11217682 Hash: 3285F469B1F0B6C192E6C88DA3B915F4 Accuracy: -m0 Conclusion: CDDA 99% Signature: 0B3B38B5FBCFE4AFD67B8A5B1E8EA2D1C8660736FILE: 19 - Machinami.flac Size: 9856543 Hash: BA4C72A408005EE99B2546C963EE0BBA Accuracy: -m0 Conclusion: CDDA 100% Signature: 96D5DC6E957E412268746665EBBC982F387F6B2EFILE: 20 - Den'en to Ogawa.flac Size: 9119922 Hash: B5B9C6ED871C2C77F053C24AA522E89C Accuracy: -m0 Conclusion: CDDA 100% Signature: E69B53FB770DE2E2787C96F258C781E3DC6F2687FILE: 21 - Utsukushiki Kariudotachi.flac Size: 8365636 Hash: 1A41C119C54A64A46967C08194901541 Accuracy: -m0 Conclusion: CDDA 100% Signature: 696E2E4819B5FE6964EF006E62402027BF14F0E1FILE: 22 - Youshiki Mono no Shukumei.flac Size: 11007215 Hash: FE1CA5020932A6CDA91EA93C4AD7CF02 Accuracy: -m0 Conclusion: CDDA 100% Signature: FEB9C866D6DCD75008EFBB9D9A6CE72E3E667C8BFILE: 23 - Kyousenshi.flac Size: 14540445 Hash: DD2804BAB7E413681460539E0F8B0D84 Accuracy: -m0 Conclusion: CDDA 100% Signature: 317DF20B66704335E721E37142FA3203142F2D4FFILE: 24 - Kakusei he no Midare.flac Size: 6756662 Hash: 7DCE83CE520C1345823B897C03DBC719 Accuracy: -m0 Conclusion: CDDA 100% Signature: C1CA1C275C0785BAAB767F4FEAEA01E64A1CC893FILE: 25 - Souzetsu na Shitou.flac Size: 12154699 Hash: 4295ABD734DEB72431399FBCFA9BE148 Accuracy: -m0 Conclusion: CDDA 100% Signature: DA6CF02924573E3E43E8410A35ECF93AE0C20114FILE: 26 - Erabareshi Mono.flac Size: 7949692 Hash: 5BA0405E9AA1FD345F1D9C7949B9E168 Accuracy: -m0 Conclusion: CDDA 100% Signature: 055AB06B027B6121105B26D4F2D38E8E540D2197FILE: 27 - Haruka na Doutei.flac Size: 6448125 Hash: 16BC3328E18009D2E3FEF424311254D9 Accuracy: -m0 Conclusion: CDDA 100% Signature: 33B1F405E45175FA114E6AE3C4A05E12B66A230BFILE: 28 - Itoshisa to Nukumori.flac Size: 7895718 Hash: 49F143E011043E6DE8192B820BE22690 Accuracy: -m0 Conclusion: CDDA 100% Signature: 5E78C7F4677E234674C47EEB253D48BAB9501820FILE: 29 - Chiheisen no Kanata.flac Size: 14500100 Hash: 635BAB72679BFDE8D8C448AC0CB54200 Accuracy: -m0 Conclusion: CDDA 100% Signature: 05D8C6DA143ED26BCA17CA708EBC153CEBB67CA7

Audition Спектр

2007 - OP

ЕАС Лог

Exact Audio Copy V1.0 beta 3 from 29. August 2011
EAC extraction logfile from 23. March 2013, 19:12
Nightmare / Claymore OP
Used drive : PLEXTOR CD-R PREMIUM2 Adapter: 0 ID: 0
Read mode : SecureUtilize accurate stream : YesDefeat audio cache : YesMake use of C2 pointers : No
Read offset correction : 30Overread into Lead-In and Lead-Out : YesFill up missing offset samples with silence : YesDelete leading and trailing silent blocks : NoNull samples used in CRC calculations : YesUsed interface : Native Win32 interface for Win NT & 2000Gap handling : Appended to previous track
Used output format : User Defined EncoderSelected bitrate : 1024 kBit/sQuality : HighAdd ID3 tag : NoCommand line compressor : C:\Program Files (x86)\Exact Audio Copy\Flac\flac.exeAdditional command line options : -V -8 -T "Genre=%genre%" -T "Artist=%artist%" -T "Title=%title%" -T "Album=%albumtitle%" -T "Date=%year%" -T "Tracknumber=%tracknr%" -T "Comment=%comment%" %source%
TOC of the extracted CD
Track | Start | Length | Start sector | End sector --------------------------------------------------------- 1 | 0:00.00 | 3:52.10 | 0 | 17409 2 | 3:52.10 | 4:45.70 | 17410 | 38854 3 | 8:38.05 | 3:37.25 | 38855 | 55154
Track 1
Filename C:\RIPs\01 - Raison D'etre.wav
Pre-gap length 0:00:02.00
Peak level 98.8 % Extraction speed 8.8 X Track quality 100.0 % Test CRC 9AE37EDE Copy CRC 9AE37EDE Track not present in AccurateRip database Copy OK
Track 2
Filename C:\RIPs\02 - Jojouteki ni Sugita Jikan to Fukakutei na Mirai e no Requiem.wav
Pre-gap length 0:00:03.60
Peak level 98.8 % Extraction speed 9.7 X Track quality 100.0 % Test CRC E9C40BA0 Copy CRC E9C40BA0 Track not present in AccurateRip database Copy OK
Track 3
Filename C:\RIPs\03 - Criminal Baby.wav
Pre-gap length 0:00:04.61
Peak level 98.8 % Extraction speed 10.2 X Track quality 100.0 % Test CRC 528F5373 Copy CRC 528F5373 Track not present in AccurateRip database Copy OK
None of the tracks are present in the AccurateRip database
No errors occurred
End of status report
---- CUETools DB Plugin V2.1.4
[CTDB TOCID: N4GoP6un.Me14hvQLp1lhNizMx8-] foundSubmit result: N4GoP6un.Me14hvQLp1lhNizMx8- has been confirmedTrack | CTDB Status 1 | (1/1) Accurately ripped 2 | (1/1) Accurately ripped 3 | (1/1) Accurately ripped
==== Log checksum 75C796189B5BB841ED59815AD5AE1608DBF27E402BC186EDA412CCD23325F39F ====

auCDtect Лог

-----------------------
DON'T MODIFY THIS FILE
-----------------------
PERFORMER: auCDtect Task Manager, ver. 1.5.1RC6 build 1.5.1.7Copyright (c) 2008-2010 y-soft. All rights reservedhttp://y-soft.org
ANALYZER: auCDtect: CD records authenticity detector, version 0.8.2Copyright (c) 2004 Oleg Berngardt. All rights reserved.Copyright (c) 2004 Alexander Djourik. All rights reserved.
FILE: 02 - Jojouteki ni Sugita Jikan to Fukakutei na Mirai e no Requiem.flac Size: 32867953 Hash: 313FFA6DBD32A067DB386E344379C338 Accuracy: -m0 Conclusion: CDDA 100% Signature: 5C2A6280444C91740C890E69FB625BD48833C69DFILE: 03 - Criminal Baby.flac Size: 26841473 Hash: 4D747AFB71F3400B9A250AEBFB1F4F87 Accuracy: -m0 Conclusion: CDDA 100% Signature: 22238E65C0F09A0E26C52F18D4B7C49768F0ED83FILE: 01 - Raison D'etre.flac Size: 29718315 Hash: 0E8048BB92B6C99E380B74899E71F078 Accuracy: -m0 Conclusion: CDDA 100% Signature: CB5FA0E72E04A737D48C05F630C96DF447549FCA

Audition Спектр

2007 - ED

ЕАС Лог

Exact Audio Copy V1.0 beta 3 from 29. August 2011
EAC extraction logfile from 21. March 2013, 0:53
Riyu Kosaka / Claymore ED
Used drive : PLEXTOR CD-R PREMIUM2 Adapter: 0 ID: 0
Read mode : SecureUtilize accurate stream : YesDefeat audio cache : YesMake use of C2 pointers : No
Read offset correction : 30Overread into Lead-In and Lead-Out : YesFill up missing offset samples with silence : YesDelete leading and trailing silent blocks : NoNull samples used in CRC calculations : YesUsed interface : Native Win32 interface for Win NT & 2000Gap handling : Appended to previous track
Used output format : User Defined EncoderSelected bitrate : 1024 kBit/sQuality : HighAdd ID3 tag : NoCommand line compressor : C:\Program Files (x86)\Exact Audio Copy\Flac\flac.exeAdditional command line options : -V -8 -T "Genre=%genre%" -T "Artist=%artist%" -T "Title=%title%" -T "Album=%albumtitle%" -T "Date=%year%" -T "Tracknumber=%tracknr%" -T "Comment=%comment%" %source%
TOC of the extracted CD
Track | Start | Length | Start sector | End sector --------------------------------------------------------- 1 | 0:00.00 | 4:21.13 | 0 | 19587 2 | 4:21.13 | 4:37.19 | 19588 | 40381 3 | 8:58.32 | 4:20.57 | 40382 | 59938 4 | 13:19.14 | 4:21.23 | 59939 | 79536 5 | 17:40.37 | 4:34.57 | 79537 | 100143
Track 1
Filename C:\RIPs\01 - Danzai no Hana ~Guilty Sky~.wav
Pre-gap length 0:00:02.00
Peak level 100.0 % Extraction speed 8.9 X Track quality 100.0 % Test CRC 2E86DF8D Copy CRC 2E86DF8D Accurately ripped (confidence 1) [AF189958] (AR v2) Copy OK
Track 2
Filename C:\RIPs\02 - Ignore.wav
Pre-gap length 0:00:01.36
Peak level 100.0 % Extraction speed 9.6 X Track quality 100.0 % Test CRC 37E89026 Copy CRC 37E89026 Accurately ripped (confidence 1) [832DFA67] (AR v2) Copy OK
Track 3
Filename C:\RIPs\03 - Danzai no Hana ~Guilty Sky~ (English Ver.).wav
Pre-gap length 0:00:02.37
Peak level 100.0 % Extraction speed 10.5 X Track quality 100.0 % Test CRC D72E84AB Copy CRC D72E84AB Accurately ripped (confidence 1) [935A34EE] (AR v2) Copy OK
Track 4
Filename C:\RIPs\04 - Danzai no Hana ~Guilty Sky~ (Instrumental).wav
Pre-gap length 0:00:01.36
Peak level 100.0 % Extraction speed 11.0 X Track quality 100.0 % Test CRC 22A0F43A Copy CRC 22A0F43A Accurately ripped (confidence 1) [CE738ECA] (AR v2) Copy OK
Track 5
Filename C:\RIPs\05 - Ignore (instrumental).wav
Pre-gap length 0:00:01.36
Peak level 100.0 % Extraction speed 11.8 X Track quality 100.0 % Test CRC 189729A7 Copy CRC 189729A7 Accurately ripped (confidence 1) [52389A66] (AR v2) Copy OK
All tracks accurately ripped
No errors occurred
End of status report
---- CUETools DB Plugin V2.1.4
[CTDB TOCID: eZx3nR3S1ZFqhNWbpOjx5N9VHwY-] foundSubmit result: eZx3nR3S1ZFqhNWbpOjx5N9VHwY- has been confirmedTrack | CTDB Status 1 | (3/3) Accurately ripped 2 | (3/3) Accurately ripped 3 | (3/3) Accurately ripped 4 | (3/3) Accurately ripped 5 | (3/3) Accurately ripped
==== Log checksum 50AE7B665C5D2817499960DE9EBEB4D1EA59AC8F05C6B10D1C33CED3F5A31325 ====

auCDtect Лог

-----------------------
DON'T MODIFY THIS FILE
-----------------------
PERFORMER: auCDtect Task Manager, ver. 1.5.1RC6 build 1.5.1.7Copyright (c) 2008-2010 y-soft. All rights reservedhttp://y-soft.org
ANALYZER: auCDtect: CD records authenticity detector, version 0.8.2Copyright (c) 2004 Oleg Berngardt. All rights reserved.Copyright (c) 2004 Alexander Djourik. All rights reserved.
FILE: 04 - Danzai no Hana ~Guilty Sky~ (Instrumental).flac Size: 34148699 Hash: A8BD1D99615FA6AAA937259E3911FBBA Accuracy: -m0 Conclusion: CDDA 100% Signature: 750337C34F82B775B429C244B388517DF847B8BFFILE: 05 - Ignore (instrumental).flac Size: 35509682 Hash: 32948711DD64A87392A461D397C033DE Accuracy: -m0 Conclusion: CDDA 100% Signature: FC3213A94658F189AAF151E8410DBEB17817EBDBFILE: 01 - Danzai no Hana ~Guilty Sky~.flac Size: 34777764 Hash: FF6B689AEA2525F258A44F9810A0D7FE Accuracy: -m0 Conclusion: CDDA 100% Signature: 7EACE2E46D5B6F175CA11DDAEBE9F8E80E4FA637FILE: 02 - Ignore.flac Size: 36211477 Hash: C8C31E6541D1B0BE28D9AA21A99F2D73 Accuracy: -m0 Conclusion: CDDA 100% Signature: 5AA8E0197B247D94540DEC91049817E96D036692FILE: 03 - Danzai no Hana ~Guilty Sky~ (English Ver.).flac Size: 34705738 Hash: A88404F47417BDDC6691E7063C8CA459 Accuracy: -m0 Conclusion: CDDA 100% Signature: C5376C9A9CD99189838A7CC7B2E28528B5749E00

Audition Спектр

2008 - Every Struggle

ЕАС Лог

Exact Audio Copy V1.0 beta 3 from 29. August 2011
EAC extraction logfile from 23. March 2013, 21:08
Riyu Kosaka / Every Struggle
Used drive : PLEXTOR CD-R PREMIUM2 Adapter: 0 ID: 0
Read mode : SecureUtilize accurate stream : YesDefeat audio cache : YesMake use of C2 pointers : No
Read offset correction : 30Overread into Lead-In and Lead-Out : YesFill up missing offset samples with silence : YesDelete leading and trailing silent blocks : NoNull samples used in CRC calculations : YesUsed interface : Native Win32 interface for Win NT & 2000Gap handling : Appended to previous track
Used output format : User Defined EncoderSelected bitrate : 1024 kBit/sQuality : HighAdd ID3 tag : NoCommand line compressor : C:\Program Files (x86)\Exact Audio Copy\Flac\flac.exeAdditional command line options : -V -8 -T "Genre=%genre%" -T "Artist=%artist%" -T "Title=%title%" -T "Album=%albumtitle%" -T "Date=%year%" -T "Tracknumber=%tracknr%" -T "Comment=%comment%" %source%
TOC of the extracted CD
Track | Start | Length | Start sector | End sector --------------------------------------------------------- 1 | 0:00.00 | 4:00.69 | 0 | 18068 2 | 4:00.69 | 4:20.66 | 18069 | 37634 3 | 8:21.60 | 5:06.05 | 37635 | 60589 4 | 13:27.65 | 5:20.44 | 60590 | 84633 5 | 18:48.34 | 4:47.53 | 84634 | 106211 6 | 23:36.12 | 3:58.38 | 106212 | 124099 7 | 27:34.50 | 5:21.49 | 124100 | 148223 8 | 32:56.24 | 4:30.18 | 148224 | 168491 9 | 37:26.42 | 5:26.51 | 168492 | 192992 10 | 42:53.18 | 3:43.52 | 192993 | 209769 11 | 46:36.70 | 4:11.10 | 209770 | 228604
Track 1
Filename C:\RIPs\01 - M.O.N.S.T.E.R.wav
Pre-gap length 0:00:02.00
Peak level 99.8 % Extraction speed 8.8 X Track quality 100.0 % Test CRC F877A33A Copy CRC F877A33A Accurately ripped (confidence 4) [DC713B1A] (AR v1) Copy OK
Track 2
Filename C:\RIPs\02 - Danzai no Hana ~Guilty Sky~.wav
Peak level 100.0 % Extraction speed 9.6 X Track quality 100.0 % Test CRC CA6AED52 Copy CRC CA6AED52 Accurately ripped (confidence 4) [B2AB2491] (AR v1) Copy OK
Track 3
Filename C:\RIPs\03 - Hakushi.wav
Peak level 100.0 % Extraction speed 9.9 X Track quality 99.9 % Test CRC 0A8B4EE3 Copy CRC 0A8B4EE3 Accurately ripped (confidence 4) [51B0C15D] (AR v1) Copy OK
Track 4
Filename C:\RIPs\04 - Dober Man.wav
Peak level 100.0 % Extraction speed 11.4 X Track quality 100.0 % Test CRC AB4BB069 Copy CRC AB4BB069 Accurately ripped (confidence 4) [90B7DC2D] (AR v1) Copy OK
Track 5
Filename C:\RIPs\05 - Memory.wav
Peak level 96.2 % Extraction speed 12.1 X Track quality 100.0 % Test CRC DB5F107C Copy CRC DB5F107C Accurately ripped (confidence 4) [CD6F2D5B] (AR v1) Copy OK
Track 6
Filename C:\RIPs\06 - 3D Heart.wav
Peak level 95.5 % Extraction speed 12.5 X Track quality 100.0 % Test CRC A7A364F3 Copy CRC A7A364F3 Accurately ripped (confidence 4) [5E9AFA54] (AR v1) Copy OK
Track 7
Filename C:\RIPs\07 - Platinum Smile.wav
Pre-gap length 0:00:02.37
Peak level 100.0 % Extraction speed 13.4 X Track quality 100.0 % Test CRC A0557BC5 Copy CRC A0557BC5 Accurately ripped (confidence 4) [126FD386] (AR v1) Copy OK
Track 8
Filename C:\RIPs\08 - Kokoro no Ato.wav
Pre-gap length 0:00:01.37
Peak level 100.0 % Extraction speed 12.7 X Track quality 99.9 % Test CRC B887B93A Copy CRC B887B93A Accurately ripped (confidence 4) [2ECAA54B] (AR v1) Copy OK
Track 9
Filename C:\RIPs\09 - The Eastern Sky.wav
Pre-gap length 0:00:01.37
Peak level 100.0 % Extraction speed 13.3 X Track quality 99.9 % Test CRC 49A2461F Copy CRC 49A2461F Accurately ripped (confidence 4) [1E0C24D4] (AR v1) Copy OK
Track 10
Filename C:\RIPs\10 - Sunny the Ride.wav
Pre-gap length 0:00:02.37
Peak level 99.9 % Extraction speed 13.9 X Track quality 100.0 % Test CRC E83BC027 Copy CRC E83BC027 Accurately ripped (confidence 4) [40E805C8] (AR v1) Copy OK
Track 11
Filename C:\RIPs\11 - Every Struggle.wav
Pre-gap length 0:00:04.36
Peak level 93.0 % Extraction speed 14.2 X Track quality 100.0 % Test CRC 0E82B5A5 Copy CRC 0E82B5A5 Accurately ripped (confidence 4) [31DB3A83] (AR v1) Copy OK
All tracks accurately ripped
No errors occurred
End of status report
---- CUETools DB Plugin V2.1.4
[CTDB TOCID: wO6AjwYMRgw1hqw8qIvTuyCUhwM-] database access error: Невозможно разрешить удаленное имя: 'db.cuetools.net'
==== Log checksum E5CC6B5A335DB6E700C5CD16A13DD33A839005DECE39AE0A2047AEA2695C1F82 ====

auCDtect Лог

-----------------------
DON'T MODIFY THIS FILE
-----------------------
PERFORMER: auCDtect Task Manager, ver. 1.5.1RC6 build 1.5.1.7Copyright (c) 2008-2010 y-soft. All rights reservedhttp://y-soft.org
ANALYZER: auCDtect: CD records authenticity detector, version 0.8.2Copyright (c) 2004 Oleg Berngardt. All rights reserved.Copyright (c) 2004 Alexander Djourik. All rights reserved.
FILE: 06 - 3D Heart.flac Size: 31976951 Hash: 43D72F3715A1EB163C10D58355E82C21 Accuracy: -m0 Conclusion: CDDA 100% Signature: A6AFF569D238D3F5C4DE1EB4668A3D939155CA2BFILE: 05 - Memory.flac Size: 37357871 Hash: 751CCBE752C53CFBF6057782A17823A2 Accuracy: -m0 Conclusion: CDDA 99% Signature: C15CFA520090C5D447EB98347F7EEBDB4192059EFILE: 04 - Dober Man.flac Size: 43571558 Hash: B93DBC62C8ED97E5C88AD7943E3A3AB4 Accuracy: -m0 Conclusion: CDDA 100% Signature: BDEF378C39DCCB487F9DBE1FFD3101E78A3675CBFILE: 03 - Hakushi.flac Size: 36888178 Hash: 28889BBD940F57A77E5103199CA0EB58 Accuracy: -m0 Conclusion: CDDA 100% Signature: DA268BBBFF46AA093E27FA9E6D60C26319F50827FILE: 02 - Danzai no Hana ~Guilty Sky~.flac Size: 34991473 Hash: 4BEF99DB80AD69B3019771F1486C27C8 Accuracy: -m0 Conclusion: CDDA 99% Signature: C72309DD673C6A4DCA46AF7B7CE847F1B382A374FILE: 01 - M.O.N.S.T.E.R.flac Size: 31491875 Hash: E560EC76D5D7EA67B5C2243E0098D380 Accuracy: -m0 Conclusion: CDDA 100% Signature: 7615C5442E28C9D42C1AECE2662741F17B3C8989FILE: 11 - Every Struggle.flac Size: 21333485 Hash: 751D2BE5BC0E9546071BA6D006DFE322 Accuracy: -m0 Conclusion: CDDA 100% Signature: 1F741C6E1AA073EDC9228C6095CE125E5D562F2BFILE: 10 - Sunny the Ride.flac Size: 30785650 Hash: 8FF201EEF4DE665F9FFDEF239AEE4EB3 Accuracy: -m0 Conclusion: CDDA 100% Signature: 34E12AD4746E4AD298BD1B2E3C1BECBEDEDCC8ACFILE: 09 - The Eastern Sky.flac Size: 44523754 Hash: C21AFDB80CCE58F6B2D3854982F856AE Accuracy: -m0 Conclusion: CDDA 100% Signature: 8BD085CA6ADA04DC15B217FB52315910BD8222F7FILE: 08 - Kokoro no Ato.flac Size: 34437212 Hash: 704E5B205D3B1457D452E9D93AD7EEDE Accuracy: -m0 Conclusion: CDDA 100% Signature: 023A340DDC1C96A6C0422AFC249AA9F920E26DFEFILE: 07 - Platinum Smile.flac Size: 40699586 Hash: 4CAFA2765FC214FC712B0242089B20D9 Accuracy: -m0 Conclusion: CDDA 99% Signature: 5675F1648965B6F6A22ACFF66B7E6EDBFD3A660B

Audition Спектр

- Приятного прослушивания
Other forum [Profile] [PM]
Display posts from previous:    
Reply to topic

The time now is: Today 06:31

All times are GMT + 3 Hours



You cannot post new topics in this forum
You cannot reply to topics in this forum
You cannot edit your posts in this forum
You cannot delete your posts in this forum
You cannot vote in polls in this forum
You cannot attach files in this forum
You cannot download files in this forum