Today is a free download without charge Download

Классические альбомы. Пинк Флойд: Обратная сторона Луны / Classic Albums. Pink Floyd: The Making of The Dark (Мэттью Лонгфеллоу / Matthew Longfellow) [2003, Великобритания, документальный, музыка, BDRip 720p] VO + 2xSub (Rus, Eng) + Original Eng

Reply to topic
 
Author
Message

Omen ®

Longevity: 8 years 4 months

Posts: 181087

Торрент-статистика

Post 01-Sep-2013 21:06

[Quote]

Классические альбомы. Пинк Флойд: Обратная сторона Луны
Classic Albums. Pink Floyd: The Making of The Dark Side of the Moon
- Страна: Великобритания
Студия: Eagle Rock Entertainment, Isis Productions, Pink Floyd Music
Жанр: документальный, музыка
Год выпуска: 2003
Продолжительность: 0:49:13
Перевод: Профессиональный (одноголосый)
Cубтитры: русские, английские
Оригинальная аудиодорожка: английская
Режиссер: Мэттью Лонгфеллоу / Matthew Longfellow
В ролях: Роджер Уотерс, Сторм Торгерсон, Найджел Уильямсон, Дэвид Фрике, Дэвид Гилмор, Ричард Райт, Ник Мейсон, Robert Sandall, Алан Парсонс, Chris Thomas, Бхаскар Менон
Описание: Это история, рассказаная изнутри создателями шедевра. The Dark Side Of The Moon (Темная сторона Луны) является альбомом, который резко трансформировал Pink Floyd из любимчиков арт-хаусной сцены в глобальных стадионных суперзвёзд.
До 1973 года Pink Floyd поддерживали неустанный концертный график, и когда они подошли к записи нового альбома у них уже была основа для того, что должно было называться The Dark Side Of The Moon. Это был первый альбом, где Роджер Уотерс (Roger Waters) был автором всех стихов, а также базовой "концепции". С безвременными качествами производства и музыкальности, соединённых с гипнотическим воздействием его центральных тем - холодность, паранойя, безумие, война и смерть, The Dark Side Of The Moon суждено было стать доминирующим альбомом 70-х и 80-х годов (с рекордным количеством недель подряд в чартах). Тридцать лет спустя он все еще находит отклик у нового поколении любителей музыки (думаю так будет и дальше, пока живы истинные ценители рока и хорошей музыки вообще (прим. пер.)).
В этом фильме трэк за трэком отслеживается процесс создания альбома 1973-го года. Все четверо участников группы, в то время Роджер Уотерс, Дэвид Гилмоур (David Gilmour), Ник Мэйсон (Nick Mason) и Ричард Райт (Richard Wright) дают эксклюзивные интервью. Роджер, Дэвид и Ричард играют песни и демонстрируют темы из альбома. Алан Парсонс (Alan Parsons) (инженер звукозаписи) знакомит с мультитрэковыми плёнками, давая уникальную возможность взглянуть на музыкальное полотно записи и всё это проиллюстрировано архивными кадрами.
The Dark Side Of The Moon в комбинации с великолепными песнями, изобретательными эффектами и одной из самых узнаваемых обложек, из когда-либо созданных, впечатался в массовое подсознание и стал орентиром в истории Рока, по-настоящему Классическим Альбомом.
Тип релиза: BDRip 720p [LOUNGE]
Контейнер: MKV
Видео: 1280x720 (16:9), 29,970 fps, x264 ~5911 kbps avg, 0.214 bit/pixel
Аудио 1: 48 kHz, AC3 Dolby Digital, 2 ch, 384 kbps (русская)
Аудио 2: 48 kHz, AC3 Dolby Digital, 2 ch, 448 kbps (английская)
Формат субтитров: softsub (SRT)
Чаптеры: есть

MediaInfo

ОбщееУникальный идентификатор : 176072093629956732783014534422909263869 (0x84764072A431A6FD959915351AE19FFD)Полное имя : \Pink.Floyd.The.Making.Of.Dark.Side.Of.The.Moon.2003.720p.BluRay.x264.mkvФормат : MatroskaВерсия формата : Version 2Размер файла : 2,32 ГбайтПродолжительность : 49 м.Общий поток : 6746 Кбит/секДата кодирования : UTC 2013-09-01 14:38:25Программа кодирования : mkvmerge v4.5.0 ('Speed of Light') сборка от Feb 1 2011 02:10:32Библиотека кодирования : libebml v1.2.0 + libmatroska v1.1.0
ВидеоИдентификатор : 1Формат : AVCФормат/Информация : Advanced Video CodecПрофиль формата : [email protected]Параметр CABAC формата : ДаПараметр ReFrames формата : 5 кадровИдентификатор кодека : V_MPEG4/ISO/AVCПродолжительность : 49 м.Битрейт : 5911 Кбит/секШирина : 1280 пикселейВысота : 720 пикселейСоотношение сторон : 16:9Режим частоты кадров : ПостоянныйЧастота кадров : 29,970 кадров/секЦветовое пространство : YUVСубдискретизация насыщенности : 4:2:0Битовая глубина : 8 битТип развёртки : ПрогрессивнаяБит/(Пиксели*Кадры) : 0.214Размер потока : 1,99 Гбайт (86%)Заголовок : Pink.Floyd.The.Making.Of.Dark.Side.Of.The.Moon.2003.720p.BluRay.x264-LOUNGEБиблиотека кодирования : x264 core 133 r2334 a3ac64bНастройки программы : cabac=1 / ref=5 / deblock=1:0:0 / analyse=0x3:0x133 / me=umh / subme=8 / psy=1psy_rd=1.00:0.00 / mixed_ref=1 / me_range=16 / chroma_me=1 / trellis=1 / 8x8dct=1 / cqm=0 / deadzone=21,11 / fast_pskip=0chroma_qp_offset=-2 / threads=12 / lookahead_threads=2 / sliced_threads=0 / nr=0 / decimate=1 / interlaced=0 / bluray_compat=0constrained_intra=0 / bframes=3 / b_pyramid=2 / b_adapt=1 / b_bias=0 / direct=1 / weightb=1 / open_gop=0 / weightp=2 / keyint=250keyint_min=25 / scenecut=40 / intra_refresh=0 / rc_lookahead=40 / rc=2pass / mbtree=1 / bitrate=5911 / ratetol=1.0 / qcomp=0.60 / qpmin=0qpmax=69 / qpstep=4 / cplxblur=20.0 / qblur=0.5 / ip_ratio=1.40 / aq=1:1.00Язык : EnglishDefault : ДаForced : Нет
Аудио #1Идентификатор : 2Формат : AC-3Формат/Информация : Audio Coding 3Расширение режима : CM (complete main)Параметр Endianness формата : BigИдентификатор кодека : A_AC3Продолжительность : 49 м.Вид битрейта : ПостоянныйБитрейт : 384 Кбит/секКаналы : 2 каналаРасположение каналов : Front: L RЧастота : 48,0 КГцБитовая глубина : 16 битМетод сжатия : С потерямиРазмер потока : 135 Мбайт (6%)Заголовок : ac3 2.0 384 kbpsЯзык : RussianDefault : ДаForced : Нет
Аудио #2Идентификатор : 3Формат : AC-3Формат/Информация : Audio Coding 3Расширение режима : CM (complete main)Параметр Endianness формата : BigИдентификатор кодека : A_AC3Продолжительность : 49 м.Вид битрейта : ПостоянныйБитрейт : 448 Кбит/секКаналы : 2 каналаРасположение каналов : Front: L RЧастота : 48,0 КГцБитовая глубина : 16 битМетод сжатия : С потерямиРазмер потока : 158 Мбайт (7%)Заголовок : ac3 2.0 448 kbpsЯзык : EnglishDefault : НетForced : Нет
Текст #1Идентификатор : 4Формат : UTF-8Идентификатор кодека : S_TEXT/UTF8Идентификатор кодека/Информация : UTF-8 Plain TextЗаголовок : Sub-fullЯзык : RussianDefault : НетForced : Нет
Текст #2Идентификатор : 5Формат : UTF-8Идентификатор кодека : S_TEXT/UTF8Идентификатор кодека/Информация : UTF-8 Plain TextЗаголовок : Sub-fullЯзык : EnglishDefault : НетForced : Нет
Меню00:00:00.000 : en:00:00:00.00000:04:32.839 : en:00:04:32.83900:06:14.241 : en:00:06:14.24100:08:39.252 : en:00:08:39.25200:12:50.403 : en:00:12:50.40300:18:00.913 : en:00:18:00.91300:24:01.040 : en:00:24:01.04000:30:17.649 : en:00:30:17.64900:37:14.032 : en:00:37:14.03200:42:53.638 : en:00:42:53.63800:47:05.756 : en:00:47:05.756

Обложка

Скриншоты


Other forum [Profile] [PM]
Similar theme
Forum Topic Author Torrent Replies Last Post
./templates/default/images/folder_dl.gif Заготовки, виньетки, костюмы, шаблоны и рамки Шаблоны - Фотокнига \"Встреча одноклассников\" [PSD] UndegraundMen
1 | 0

0 | 2204

7

2013-07-26 23:25
UndegraundMen Latest
./templates/default/images/folder_dl.gif Обучающее видео Павел Апалькин | Съемка классического портрета Tutorial #003 (2014) CamRip Omen
1 | 0

0 | 2979

20

2014-12-15 17:15
Omen Latest
./templates/default/images/folder_dl.gif Обучающее видео Ирина Сапронова | Мастер-класс по обработке фотографий (2014) PCRec Omen
1 | 0

0 | 2749

43

2015-02-26 22:57
Omen Latest
./templates/default/images/folder_dl.gif Приключения, детектив, боевик, триллер Рафаэль Сабатини - Сборник произведений (79 книг) [1957-2016, Приключения, Исторические приключения, Классическая проза, FB2, DjVu] Omen
0 | 1

0 | 1220

3

2016-12-03 01:00
Omen Latest
Display posts from previous:    
Reply to topic

The time now is: Today 22:11

All times are GMT + 3 Hours



You cannot post new topics in this forum
You cannot reply to topics in this forum
You cannot edit your posts in this forum
You cannot delete your posts in this forum
You cannot vote in polls in this forum
You cannot attach files in this forum
You cannot download files in this forum