Today is a free download without charge Download

[Kurokami The Animation / Темная богиня][FLAC (tracks)][lossless][OST][6CD]

Reply to topic
 
Author
Message

Omen ®

Longevity: 9 years 1 month

Posts: 181086

Торрент-статистика

Post 01-Sep-2013 16:58

[Quote]

Темная богиняОбщие характеристики:
Производство:
Год выпуска: 2009
Формат: FLAC
Частота: 44100Гц
Продолжительность: 76 треков - 3:32:48
-Альбомы:

Открыть

2009 - OST

OST
Список треков:
01. Sympathizer (TV Size) [1:33]
02. Main Theme [5:21]
03. Akane [2:11]
04. Doppleliner System [2:39]
05. City of Light [1:39]
06. Isshin Furan [3:56]
07. Aimed Person [1:31]
08. Tribalend [2:12]
09. It is Time Now! [2:24]
10. Manufacturing Machine [1:49]
11. Keita [1:39]
12. Kuro [1:41]
13. Days [2:24]
14. Heartiness [3:04]
15. Brand New World [4:35]
16. Escape [4:03]
17. Reishin [2:42]
18. Excel [1:56]
19. Not Forgotten [4:24]
20. The Noble One [2:59]
21. Afraid [1:30]
22. Love is -Seasons of Fights- [3:28]
23. Mother [2:20]
24. Dorfer 1 [0:15]
25. Dorfer 2 [0:13]
26. Dorfer 3 [0:20]
27. K-ON Mart [0:55]
28. Iro no nai Sekai (TV Size) [1:01]-

2009 - OST 2

OST 2
Список треков:
01. Trance (TV Size) [1:37]
02. Theme of Anecdote [0:19]
03. Self-Righteousness [2:04]
04. A Pure Place [2:45]
05. Okinawa [1:58]
06. Synchronize [4:53]
07. The Fateful Day [1:35]
08. Destrudo -Remixed- [2:26]
09. Lets Synchronize and do Some Damage [2:14]
10. The Forthcoming [2:12]
11. System [1:51]
12. The Spiritual Stone [2:56]
13. Theme of Grief [1:10]
14. Akane Piano Ver. [2:15]
15. Reishin Piano Ver. [2:41]
16. Die [2:00]
17. Tender-Eyed [2:52]
18. Tenderness [2:12]
19. Elegant Days [1:30]
20. Pepepopo [0:41]
21. Emotional Conflict [1:25]
22. Doppelliner [1:48]
23. God Who Punishes [2:11]
24. Corruption [1:49]
25. Explode With the Rage [3:34]
26. Destruction [2:16]
27. Contracted Akane [2:25]
28. God [5:05]
29. Meditation [2:31]
30. Gekkou no Chigiri (TV Size) [1:00]-
-Синглы:

Открыть

2009 - OP

OP
Список треков:
01. Sympathizer [4:17]
02. Sora no Kotae [4:42]
03. Sympathizer (Off Vocal) [4:17]
04. Sora no Kotae (Off Vocal) [4:40]-
ED
Список треков:
01. Irodori no Nai Sekai [4:44]
02. Destrudo [3:56]
03. Valtica [3:59]
04. Tooi Maboroshi [3:46]
05. Alte Burg [5:37]
06. Irodori no Nai Sekai [4:43]-

2009 - OP 2

OP 2
Список треков:
01. Trance [4:52]
02. Nejireta Yugami [6:19]
03. Trance (Off Vocal) [4:52]
04. Nejireta Yugami (Off Vocal) [6:17]-

2009 - ED 2

ED 2
Список треков:
01. Gekko no Chigiri [3:51]
02. Simulacra [3:48]
03. Sacrifice [3:26]
04. Gekko no Chigiri (Instrumental) [3:49]-
-Проверка:

Открыть

2009 - OST

ЕАС Лог

Exact Audio Copy V1.0 beta 3 from 29. August 2011
EAC extraction logfile from 31. August 2013, 21:22
- / Kurokami OST
Used drive : PLEXTOR CD-R PREMIUM2 Adapter: 0 ID: 0
Read mode : SecureUtilize accurate stream : YesDefeat audio cache : YesMake use of C2 pointers : No
Read offset correction : 30Overread into Lead-In and Lead-Out : YesFill up missing offset samples with silence : YesDelete leading and trailing silent blocks : NoNull samples used in CRC calculations : YesUsed interface : Native Win32 interface for Win NT & 2000Gap handling : Appended to previous track
Used output format : User Defined EncoderSelected bitrate : 1024 kBit/sQuality : HighAdd ID3 tag : NoCommand line compressor : C:\Program Files (x86)\Exact Audio Copy\Flac\flac.exeAdditional command line options : -V -8 -T "Genre=%genre%" -T "Artist=%artist%" -T "Title=%title%" -T "Album=%albumtitle%" -T "Date=%year%" -T "Tracknumber=%tracknr%" -T "Comment=%comment%" %source%
TOC of the extracted CD
Track | Start | Length | Start sector | End sector --------------------------------------------------------- 1 | 0:00.00 | 1:33.19 | 0 | 6993 2 | 1:33.19 | 5:20.48 | 6994 | 31041 3 | 6:53.67 | 2:10.50 | 31042 | 40841 4 | 9:04.42 | 2:39.32 | 40842 | 52798 5 | 11:43.74 | 1:39.21 | 52799 | 60244 6 | 13:23.20 | 3:56.31 | 60245 | 77975 7 | 17:19.51 | 1:30.45 | 77976 | 84770 8 | 18:50.21 | 2:11.54 | 84771 | 94649 9 | 21:02.00 | 2:24.22 | 94650 | 105471 10 | 23:26.22 | 1:48.67 | 105472 | 113638 11 | 25:15.14 | 1:38.41 | 113639 | 121029 12 | 26:53.55 | 1:40.70 | 121030 | 128599 13 | 28:34.50 | 2:23.59 | 128600 | 139383 14 | 30:58.34 | 3:04.13 | 139384 | 153196 15 | 34:02.47 | 4:35.34 | 153197 | 173855 16 | 38:38.06 | 4:02.44 | 173856 | 192049 17 | 42:40.50 | 2:41.59 | 192050 | 204183 18 | 45:22.34 | 1:56.25 | 204184 | 212908 19 | 47:18.59 | 4:24.11 | 212909 | 232719 20 | 51:42.70 | 2:58.43 | 232720 | 246112 21 | 54:41.38 | 1:30.18 | 246113 | 252880 22 | 56:11.56 | 3:28.12 | 252881 | 268492 23 | 59:39.68 | 2:19.39 | 268493 | 278956 24 | 61:59.32 | 0:14.38 | 278957 | 280044 25 | 62:13.70 | 0:12.39 | 280045 | 280983 26 | 62:26.34 | 0:19.40 | 280984 | 282448 27 | 62:45.74 | 0:54.49 | 282449 | 286547 28 | 63:40.48 | 1:01.00 | 286548 | 291122
Track 1
Filename C:\RIPs\01 - Sympathizer (TV Size).wav
Pre-gap length 0:00:02.00
Peak level 99.4 % Extraction speed 7.8 X Track quality 100.0 % Test CRC 78FFD31D Copy CRC 78FFD31D Track not present in AccurateRip database Copy OK
Track 2
Filename C:\RIPs\02 - Main Theme.wav
Peak level 95.5 % Extraction speed 9.3 X Track quality 100.0 % Test CRC E8A3BE1B Copy CRC E8A3BE1B Track not present in AccurateRip database Copy OK
Track 3
Filename C:\RIPs\03 - Akane.wav
Peak level 93.1 % Extraction speed 9.3 X Track quality 100.0 % Test CRC C6806CEA Copy CRC C6806CEA Track not present in AccurateRip database Copy OK
Track 4
Filename C:\RIPs\04 - Doppleliner System.wav
Peak level 96.2 % Extraction speed 9.9 X Track quality 100.0 % Test CRC 12F8FD20 Copy CRC 12F8FD20 Track not present in AccurateRip database Copy OK
Track 5
Filename C:\RIPs\05 - City of Light.wav
Peak level 97.8 % Extraction speed 7.0 X Track quality 99.8 % Test CRC A2946442 Copy CRC A2946442 Track not present in AccurateRip database Copy OK
Track 6
Filename C:\RIPs\06 - Isshin Furan.wav
Peak level 96.6 % Extraction speed 10.8 X Track quality 100.0 % Test CRC 59373F05 Copy CRC 59373F05 Track not present in AccurateRip database Copy OK
Track 7
Filename C:\RIPs\07 - Aimed Person.wav
Peak level 94.4 % Extraction speed 7.2 X Track quality 99.8 % Test CRC D62CA81B Copy CRC D62CA81B Track not present in AccurateRip database Copy OK
Track 8
Filename C:\RIPs\08 - Tribalend.wav
Peak level 94.5 % Extraction speed 10.9 X Track quality 100.0 % Test CRC D8782616 Copy CRC D8782616 Track not present in AccurateRip database Copy OK
Track 9
Filename C:\RIPs\09 - It is Time Now!.wav
Peak level 94.5 % Extraction speed 11.3 X Track quality 100.0 % Test CRC 3CF464AD Copy CRC 3CF464AD Track not present in AccurateRip database Copy OK
Track 10
Filename C:\RIPs\10 - Manufacturing Machine.wav
Peak level 96.6 % Extraction speed 8.6 X Track quality 99.9 % Test CRC F67BACC0 Copy CRC F67BACC0 Track not present in AccurateRip database Copy OK
Track 11
Filename C:\RIPs\11 - Keita.wav
Peak level 99.5 % Extraction speed 11.1 X Track quality 100.0 % Test CRC D332C0C4 Copy CRC D332C0C4 Track not present in AccurateRip database Copy OK
Track 12
Filename C:\RIPs\12 - Kuro.wav
Peak level 99.9 % Extraction speed 8.0 X Track quality 99.8 % Test CRC E5F1C9CE Copy CRC E5F1C9CE Track not present in AccurateRip database Copy OK
Track 13
Filename C:\RIPs\13 - Days.wav
Peak level 99.7 % Extraction speed 11.9 X Track quality 100.0 % Test CRC FCEEFA0A Copy CRC FCEEFA0A Track not present in AccurateRip database Copy OK
Track 14
Filename C:\RIPs\14 - Heartiness.wav
Peak level 100.0 % Extraction speed 12.8 X Track quality 100.0 % Test CRC 0D28BDAE Copy CRC 0D28BDAE Track not present in AccurateRip database Copy OK
Track 15
Filename C:\RIPs\15 - Brand New World.wav
Peak level 96.8 % Extraction speed 13.8 X Track quality 100.0 % Test CRC 84670393 Copy CRC 84670393 Track not present in AccurateRip database Copy OK
Track 16
Filename C:\RIPs\16 - Escape.wav
Peak level 96.4 % Extraction speed 13.8 X Track quality 100.0 % Test CRC 12A404E1 Copy CRC 12A404E1 Track not present in AccurateRip database Copy OK
Track 17
Filename C:\RIPs\17 - Reishin.wav
Peak level 97.2 % Extraction speed 13.2 X Track quality 100.0 % Test CRC 2B0AE920 Copy CRC 2B0AE920 Track not present in AccurateRip database Copy OK
Track 18
Filename C:\RIPs\18 - Excel.wav
Peak level 99.2 % Extraction speed 12.7 X Track quality 100.0 % Test CRC 67DE338B Copy CRC 67DE338B Track not present in AccurateRip database Copy OK
Track 19
Filename C:\RIPs\19 - Not Forgotten.wav
Peak level 99.6 % Extraction speed 14.1 X Track quality 100.0 % Test CRC 43FBE2ED Copy CRC 43FBE2ED Track not present in AccurateRip database Copy OK
Track 20
Filename C:\RIPs\20 - The Noble One.wav
Peak level 97.2 % Extraction speed 13.6 X Track quality 100.0 % Test CRC D5F12D79 Copy CRC D5F12D79 Track not present in AccurateRip database Copy OK
Track 21
Filename C:\RIPs\21 - Afraid.wav
Peak level 97.0 % Extraction speed 12.1 X Track quality 100.0 % Test CRC 798B5B23 Copy CRC 798B5B23 Track not present in AccurateRip database Copy OK
Track 22
Filename C:\RIPs\22 - Love is -Seasons of Fights-.wav
Peak level 97.9 % Extraction speed 11.8 X Track quality 99.9 % Test CRC 5021A33F Copy CRC 5021A33F Track not present in AccurateRip database Copy OK
Track 23
Filename C:\RIPs\23 - Mother.wav
Peak level 98.6 % Extraction speed 13.3 X Track quality 100.0 % Test CRC CB37AC9F Copy CRC CB37AC9F Track not present in AccurateRip database Copy OK
Track 24
Filename C:\RIPs\24 - Dorfer 1.wav
Peak level 98.2 % Extraction speed 5.4 X Track quality 100.0 % Test CRC DE319088 Copy CRC DE319088 Track not present in AccurateRip database Copy OK
Track 25
Filename C:\RIPs\25 - Dorfer 2.wav
Peak level 99.9 % Extraction speed 5.0 X Track quality 100.0 % Test CRC 95AD041A Copy CRC 95AD041A Track not present in AccurateRip database Copy OK
Track 26
Filename C:\RIPs\26 - Dorfer 3.wav
Peak level 100.0 % Extraction speed 6.6 X Track quality 100.0 % Test CRC 5224BC12 Copy CRC 5224BC12 Track not present in AccurateRip database Copy OK
Track 27
Filename C:\RIPs\27 - K-ON Mart.wav
Peak level 96.4 % Extraction speed 10.6 X Track quality 100.0 % Test CRC F6BE5CAF Copy CRC F6BE5CAF Track not present in AccurateRip database Copy OK
Track 28
Filename C:\RIPs\28 - Iro no nai Sekai (TV Size).wav
Peak level 97.6 % Extraction speed 11.0 X Track quality 100.0 % Test CRC 0FE46C01 Copy CRC 0FE46C01 Track not present in AccurateRip database Copy OK
None of the tracks are present in the AccurateRip database
No errors occurred
End of status report
---- CUETools DB Plugin V2.1.4
[CTDB TOCID: 68qnvPHHpPuLc3BraD8gA2vMeWg-] disk not present in databaseSubmit result: 68qnvPHHpPuLc3BraD8gA2vMeWg- has been uploaded
==== Log checksum 943820B3EA751418572C71C1CDDB27EE0AF5CA4E4073B51377F5200D779E67C5 ====

auCDtect Лог

-----------------------
DON'T MODIFY THIS FILE
-----------------------
PERFORMER: auCDtect Task Manager, ver. 1.5.1RC6 build 1.5.1.7Copyright (c) 2008-2010 y-soft. All rights reservedhttp://y-soft.org
ANALYZER: auCDtect: CD records authenticity detector, version 0.8.2Copyright (c) 2004 Oleg Berngardt. All rights reserved.Copyright (c) 2004 Alexander Djourik. All rights reserved.
FILE: 21 - Afraid.flac Size: 8858162 Hash: 6CE85B30E18789FD43C15EF67747F69D Accuracy: -m0 Conclusion: CDDA 100% Signature: 2DDE5C047F95FF6CB4124F5AF46D0F8D0F862118FILE: 22 - Love is -Seasons of Fights-.flac Size: 26227493 Hash: 16E52DD9FD5E6A20B09535739E744F72 Accuracy: -m0 Conclusion: CDDA 99% Signature: 725397720D5007EF355F0A7104FB86A1BD3283B7FILE: 23 - Mother.flac Size: 11958880 Hash: 3FE517D34E1E88DEAEA33A0B0462C283 Accuracy: -m0 Conclusion: CDDA 100% Signature: A2962A5B9DB754BA43C3F0D87C0FC3B4EDEE2C84FILE: 24 - Dorfer 1.flac Size: 1259984 Hash: 3D57BF1D7DFA0A667F568F3E8BDA78C7 Accuracy: -m0 Conclusion: CDDA 99% Signature: 4430C5FA28E85B7A45E8A127F60D3E6DCF63442AFILE: 25 - Dorfer 2.flac Size: 1024139 Hash: DE12E00021951644CEB2491261360317 Accuracy: -m0 Conclusion: CDDA 94% Signature: ECABD71C0254F15B057CA74B9A006ED8787D1E2BFILE: 26 - Dorfer 3.flac Size: 1728252 Hash: F0603A9E9033F9B417E9DC61E8924B82 Accuracy: -m0 Conclusion: CDDA 99% Signature: 8009120452B0D51F4ECF7D2F28755504458F55DCFILE: 27 - K-ON Mart.flac Size: 6525217 Hash: 62EF7A4D77CBC82176C33E95D44F8456 Accuracy: -m0 Conclusion: CDDA 100% Signature: A5546CA34D870BEDF8122CD6623DA0572C7B3C2BFILE: 28 - Iro no nai Sekai (TV Size).flac Size: 6308760 Hash: 5E36C4BCC84516A6779A28FE9F391D27 Accuracy: -m0 Conclusion: CDDA 100% Signature: 4E0C03EBDB5173AD69AC16DADB83949F5BD48E99FILE: 01 - Sympathizer (TV Size).flac Size: 12332077 Hash: ECC0E55D3A841BAC74F2E72444AA2AD9 Accuracy: -m0 Conclusion: CDDA 100% Signature: CE12D368093CF0620156F63A27068472378B684CFILE: 02 - Main Theme.flac Size: 27223185 Hash: 89C023CB46D9CA91422DCA11960555E0 Accuracy: -m0 Conclusion: CDDA 62% Signature: 3A57EF6D1542A848635FC18EE17C82D4541FE37FFILE: 03 - Akane.flac Size: 9510792 Hash: 7742BE3736299BB410EAD533B9856CDC Accuracy: -m0 Conclusion: CDDA 85% Signature: EC22B73F90C7D7A35A6C97D489AEEEE5E8EA342DFILE: 04 - Doppleliner System.flac Size: 14563474 Hash: 53513A18EF59D19865CF5B725B006718 Accuracy: -m0 Conclusion: CDDA 87% Signature: 840699F2669D0F6A2AA90D031A9A68398A347062FILE: 05 - City of Light.flac Size: 6983485 Hash: DFF3A89A4CE9789451523B878FB95706 Accuracy: -m0 Conclusion: CDDA 100% Signature: 538FB69B7BB14D276E9453E3ADA3063AEDB71E06FILE: 06 - Isshin Furan.flac Size: 30118604 Hash: B6069F9C4F89847AD24935B0BE1149BA Accuracy: -m0 Conclusion: CDDA 100% Signature: 75C74958A9BB5B70FEB13DA3217C6D18F5FFA3A2FILE: 07 - Aimed Person.flac Size: 10124908 Hash: 50C65526C67B606C40527D8EDBD63F98 Accuracy: -m0 Conclusion: CDDA 100% Signature: 3B58E16424AECC3D11C5A539045234DD342A2EB2FILE: 08 - Tribalend.flac Size: 13034644 Hash: 7A4BE636CF753D9B22A323D4D333D8A5 Accuracy: -m0 Conclusion: CDDA 100% Signature: F634C0CC35E6DA37E7FBC0A469AB1708BE4371A9FILE: 09 - It is Time Now!.flac Size: 18409355 Hash: D1561E32A6E3E9667404D01B8316301A Accuracy: -m0 Conclusion: CDDA 100% Signature: A1076953A42DF515C3CF00CE692CF41E0D3530B3FILE: 10 - Manufacturing Machine.flac Size: 9146825 Hash: 7F8D0E904F1C5A2D9AA70A3172855122 Accuracy: -m0 Conclusion: CDDA 100% Signature: FE4C87771A35B8FB6A01B4ABF7094B3188226D03FILE: 11 - Keita.flac Size: 7840051 Hash: 11EFCDD1B917BA1B81EC3ECEEA8DD29F Accuracy: -m0 Conclusion: CDDA 54% Signature: 4DDB5308C9D29D034C37309DF5A61968DED1BA21FILE: 12 - Kuro.flac Size: 8182840 Hash: C4F87BDA4681991DC98A641E7EBA6511 Accuracy: -m0 Conclusion: CDDA 100% Signature: 20E4F6B743FACC322053721346716EE0BC890689FILE: 13 - Days.flac Size: 16124649 Hash: FF6C16097EECC5D28802451DB0E85509 Accuracy: -m0 Conclusion: CDDA 100% Signature: 168981488EA9CD327E6598776E0E33D814D9CB15FILE: 14 - Heartiness.flac Size: 20195495 Hash: 9497673DADD5D89300C975F4F5DA741C Accuracy: -m0 Conclusion: CDDA 100% Signature: 0AE851267481019496287DA933ADF5FA316F337EFILE: 15 - Brand New World.flac Size: 34658816 Hash: A6DA5E34C4237DA1837CD51425735CA6 Accuracy: -m0 Conclusion: CDDA 100% Signature: 776BEA5C7DF12F1CBA11A4738141FDF70721A8F1FILE: 16 - Escape.flac Size: 27898225 Hash: 8B5972CE3AB6C547C10BDA51C5940804 Accuracy: -m0 Conclusion: CDDA 100% Signature: C5D5C384A6F2547B101F815E5F17E48905ED1805FILE: 17 - Reishin.flac Size: 14120112 Hash: 2D328289EA3C3FE08148A8491E09BBF5 Accuracy: -m0 Conclusion: CDDA 100% Signature: E3B6F70A6A2BBE1262EF6513845CE3B78B3FFE8AFILE: 18 - Excel.flac Size: 10268718 Hash: 8BC18B4E82697A9567DB9C8B702B6782 Accuracy: -m0 Conclusion: CDDA 100% Signature: AADA6C2739DE3CCFA0CF2A9EDA4D35BD19C31698FILE: 19 - Not Forgotten.flac Size: 26592576 Hash: 490F835A756E960679B8E94D6BE2FEA8 Accuracy: -m0 Conclusion: CDDA 100% Signature: CEA0B7678E7447EC56B0D4F2B007E7F4975C126EFILE: 20 - The Noble One.flac Size: 16277903 Hash: 84EF4B654C5F441B22885EFDDD88C0D9 Accuracy: -m0 Conclusion: CDDA 100% Signature: D3C0040195325382FAF90B8AF996AAC531488B10

Audition Спектр

2009 - OST 2

ЕАС Лог

Exact Audio Copy V1.0 beta 3 from 29. August 2011
EAC extraction logfile from 31. August 2013, 20:26
- / Kurokami OST 2
Used drive : PLEXTOR CD-R PREMIUM2 Adapter: 0 ID: 0
Read mode : SecureUtilize accurate stream : YesDefeat audio cache : YesMake use of C2 pointers : No
Read offset correction : 30Overread into Lead-In and Lead-Out : YesFill up missing offset samples with silence : YesDelete leading and trailing silent blocks : NoNull samples used in CRC calculations : YesUsed interface : Native Win32 interface for Win NT & 2000Gap handling : Appended to previous track
Used output format : User Defined EncoderSelected bitrate : 1024 kBit/sQuality : HighAdd ID3 tag : NoCommand line compressor : C:\Program Files (x86)\Exact Audio Copy\Flac\flac.exeAdditional command line options : -V -8 -T "Genre=%genre%" -T "Artist=%artist%" -T "Title=%title%" -T "Album=%albumtitle%" -T "Date=%year%" -T "Tracknumber=%tracknr%" -T "Comment=%comment%" %source%
TOC of the extracted CD
Track | Start | Length | Start sector | End sector --------------------------------------------------------- 1 | 0:00.00 | 1:37.23 | 0 | 7297 2 | 1:37.23 | 0:18.54 | 7298 | 8701 3 | 1:56.02 | 2:04.21 | 8702 | 18022 4 | 4:00.23 | 2:45.20 | 18023 | 30417 5 | 6:45.43 | 1:58.29 | 30418 | 39296 6 | 8:43.72 | 4:53.11 | 39297 | 61282 7 | 13:37.08 | 1:34.38 | 61283 | 68370 8 | 15:11.46 | 2:26.06 | 68371 | 79326 9 | 17:37.52 | 2:14.19 | 79327 | 89395 10 | 19:51.71 | 2:11.59 | 89396 | 99279 11 | 22:03.55 | 1:50.71 | 99280 | 107600 12 | 23:54.51 | 2:55.62 | 107601 | 120787 13 | 26:50.38 | 1:09.47 | 120788 | 126009 14 | 28:00.10 | 2:14.52 | 126010 | 136111 15 | 30:14.62 | 2:41.10 | 136112 | 148196 16 | 32:55.72 | 1:59.41 | 148197 | 157162 17 | 34:55.38 | 2:52.03 | 157163 | 170065 18 | 37:47.41 | 2:11.41 | 170066 | 179931 19 | 39:59.07 | 1:29.71 | 179932 | 186677 20 | 41:29.03 | 0:41.21 | 186678 | 189773 21 | 42:10.24 | 1:24.39 | 189774 | 196112 22 | 43:34.63 | 1:48.10 | 196113 | 204222 23 | 45:22.73 | 2:10.68 | 204223 | 214040 24 | 47:33.66 | 1:49.30 | 214041 | 222245 25 | 49:23.21 | 3:34.13 | 222246 | 238308 26 | 52:57.34 | 2:15.64 | 238309 | 248497 27 | 55:13.23 | 2:25.36 | 248498 | 259408 28 | 57:38.59 | 5:05.21 | 259409 | 282304 29 | 62:44.05 | 2:30.47 | 282305 | 293601 30 | 65:14.52 | 0:59.63 | 293602 | 298089
Track 1
Filename C:\RIPs\01 - Trance (TV Size).wav
Pre-gap length 0:00:02.00
Peak level 100.0 % Extraction speed 7.6 X Track quality 100.0 % Test CRC 3BE0C2E3 Copy CRC 3BE0C2E3 Accurately ripped (confidence 1) [DB1D0412] (AR v2) Copy OK
Track 2
Filename C:\RIPs\02 - Theme of Anecdote.wav
Peak level 85.8 % Extraction speed 5.1 X Track quality 100.0 % Test CRC CD94A33F Copy CRC CD94A33F Accurately ripped (confidence 1) [D95265C2] (AR v2) Copy OK
Track 3
Filename C:\RIPs\03 - Self-Righteousness.wav
Peak level 96.6 % Extraction speed 8.4 X Track quality 100.0 % Test CRC DCC729F2 Copy CRC DCC729F2 Accurately ripped (confidence 1) [E1EAA484] (AR v2) Copy OK
Track 4
Filename C:\RIPs\04 - A Pure Place.wav
Peak level 98.3 % Extraction speed 9.1 X Track quality 100.0 % Test CRC 633B48A1 Copy CRC 633B48A1 Accurately ripped (confidence 1) [1BE8F09E] (AR v2) Copy OK
Track 5
Filename C:\RIPs\05 - Okinawa.wav
Peak level 98.3 % Extraction speed 9.1 X Track quality 100.0 % Test CRC 7A000038 Copy CRC 7A000038 Accurately ripped (confidence 1) [46600D19] (AR v2) Copy OK
Track 6
Filename C:\RIPs\06 - Synchronize.wav
Peak level 98.3 % Extraction speed 9.3 X Track quality 99.9 % Test CRC 773D2B4C Copy CRC 773D2B4C Accurately ripped (confidence 1) [1A557827] (AR v2) Copy OK
Track 7
Filename C:\RIPs\07 - The Fateful Day.wav
Peak level 99.4 % Extraction speed 9.8 X Track quality 100.0 % Test CRC 1717413F Copy CRC 1717413F Accurately ripped (confidence 1) [EC6A33CB] (AR v2) Copy OK
Track 8
Filename C:\RIPs\08 - Destrudo -Remixed-.wav
Peak level 96.6 % Extraction speed 8.2 X Track quality 99.9 % Test CRC 7AF70E8E Copy CRC 7AF70E8E Accurately ripped (confidence 1) [53A3BEDB] (AR v2) Copy OK
Track 9
Filename C:\RIPs\09 - Lets Synchronize and do Some Damage.wav
Peak level 94.5 % Extraction speed 10.8 X Track quality 100.0 % Test CRC 0E05CBC1 Copy CRC 0E05CBC1 Accurately ripped (confidence 1) [9724CA56] (AR v2) Copy OK
Track 10
Filename C:\RIPs\10 - The Forthcoming.wav
Peak level 96.6 % Extraction speed 8.9 X Track quality 99.9 % Test CRC 384D183A Copy CRC 384D183A Accurately ripped (confidence 1) [8A09D1A4] (AR v2) Copy OK
Track 11
Filename C:\RIPs\11 - System.wav
Peak level 96.6 % Extraction speed 11.0 X Track quality 100.0 % Test CRC 99960142 Copy CRC 99960142 Accurately ripped (confidence 1) [BCF0E2A7] (AR v2) Copy OK
Track 12
Filename C:\RIPs\12 - The Spiritual Stone.wav
Peak level 97.6 % Extraction speed 12.0 X Track quality 100.0 % Test CRC 750E63C3 Copy CRC 750E63C3 Accurately ripped (confidence 1) [50BD51B4] (AR v2) Copy OK
Track 13
Filename C:\RIPs\13 - Theme of Grief.wav
Peak level 99.2 % Extraction speed 10.6 X Track quality 100.0 % Test CRC 4BDB4DDA Copy CRC 4BDB4DDA Accurately ripped (confidence 1) [0B6F1B67] (AR v2) Copy OK
Track 14
Filename C:\RIPs\14 - Akane Piano Ver..wav
Peak level 96.5 % Extraction speed 12.0 X Track quality 100.0 % Test CRC 64C2204D Copy CRC 64C2204D Accurately ripped (confidence 1) [D0ED3240] (AR v2) Copy OK
Track 15
Filename C:\RIPs\15 - Reishin Piano Ver..wav
Peak level 99.9 % Extraction speed 12.6 X Track quality 100.0 % Test CRC 5BDBAD05 Copy CRC 5BDBAD05 Accurately ripped (confidence 1) [09985456] (AR v2) Copy OK
Track 16
Filename C:\RIPs\16 - Die.wav
Peak level 99.6 % Extraction speed 12.3 X Track quality 100.0 % Test CRC 55B82519 Copy CRC 55B82519 Accurately ripped (confidence 1) [13D966C6] (AR v2) Copy OK
Track 17
Filename C:\RIPs\17 - Tender-Eyed.wav
Peak level 88.6 % Extraction speed 13.2 X Track quality 100.0 % Test CRC 51F65845 Copy CRC 51F65845 Accurately ripped (confidence 1) [258E0673] (AR v2) Copy OK
Track 18
Filename C:\RIPs\18 - Tenderness.wav
Peak level 95.9 % Extraction speed 12.6 X Track quality 100.0 % Test CRC 8B1D9763 Copy CRC 8B1D9763 Accurately ripped (confidence 1) [E6D3A44F] (AR v2) Copy OK
Track 19
Filename C:\RIPs\19 - Elegant Days.wav
Peak level 100.0 % Extraction speed 8.7 X Track quality 99.8 % Test CRC AC4EA204 Copy CRC AC4EA204 Accurately ripped (confidence 1) [972EAB19] (AR v2) Copy OK
Track 20
Filename C:\RIPs\20 - Pepepopo.wav
Peak level 78.5 % Extraction speed 9.4 X Track quality 100.0 % Test CRC 06CDE546 Copy CRC 06CDE546 Accurately ripped (confidence 1) [FB56E00E] (AR v2) Copy OK
Track 21
Filename C:\RIPs\21 - Emotional Conflict.wav
Peak level 96.6 % Extraction speed 11.7 X Track quality 100.0 % Test CRC 3330CE1F Copy CRC 3330CE1F Accurately ripped (confidence 1) [21F6141E] (AR v2) Copy OK
Track 22
Filename C:\RIPs\22 - Doppelliner.wav
Peak level 99.8 % Extraction speed 12.3 X Track quality 100.0 % Test CRC AC310D86 Copy CRC AC310D86 Accurately ripped (confidence 1) [36658630] (AR v2) Copy OK
Track 23
Filename C:\RIPs\23 - God Who Punishes.wav
Peak level 95.5 % Extraction speed 12.9 X Track quality 100.0 % Test CRC D5E994E0 Copy CRC D5E994E0 Accurately ripped (confidence 1) [A6A24BAA] (AR v2) Copy OK
Track 24
Filename C:\RIPs\24 - Corruption.wav
Peak level 98.3 % Extraction speed 12.6 X Track quality 100.0 % Test CRC EDE9A65E Copy CRC EDE9A65E Accurately ripped (confidence 1) [7A51D5A9] (AR v2) Copy OK
Track 25
Filename C:\RIPs\25 - Explode With the Rage.wav
Peak level 94.5 % Extraction speed 13.8 X Track quality 100.0 % Test CRC AD085017 Copy CRC AD085017 Accurately ripped (confidence 1) [B7186C2E] (AR v2) Copy OK
Track 26
Filename C:\RIPs\26 - Destruction.wav
Peak level 96.6 % Extraction speed 13.1 X Track quality 100.0 % Test CRC B3F35E3E Copy CRC B3F35E3E Accurately ripped (confidence 1) [8C146655] (AR v2) Copy OK
Track 27
Filename C:\RIPs\27 - Contracted Akane.wav
Peak level 98.3 % Extraction speed 13.4 X Track quality 100.0 % Test CRC BFF072A3 Copy CRC BFF072A3 Accurately ripped (confidence 1) [3E0E0E1F] (AR v2) Copy OK
Track 28
Filename C:\RIPs\28 - God.wav
Peak level 100.0 % Extraction speed 14.6 X Track quality 100.0 % Test CRC B0898C4E Copy CRC B0898C4E Accurately ripped (confidence 1) [C3942FA0] (AR v2) Copy OK
Track 29
Filename C:\RIPs\29 - Meditation.wav
Peak level 100.0 % Extraction speed 13.5 X Track quality 100.0 % Test CRC D28F4F0C Copy CRC D28F4F0C Accurately ripped (confidence 1) [71178D79] (AR v2) Copy OK
Track 30
Filename C:\RIPs\30 - Gekkou no Chigiri (TV Size).wav
Peak level 99.8 % Extraction speed 11.1 X Track quality 100.0 % Test CRC 846A2A60 Copy CRC 846A2A60 Accurately ripped (confidence 1) [5C3A60BE] (AR v2) Copy OK
All tracks accurately ripped
No errors occurred
End of status report
---- CUETools DB Plugin V2.1.4
[CTDB TOCID: RRTKyEmtwgdfpkvpUYXjD_DURLE-] disk not present in databaseSubmit result: RRTKyEmtwgdfpkvpUYXjD_DURLE- has been uploaded
==== Log checksum C5677DC193E6780223AF484F91D45D5105CBE76578DAA3EB918719550D8F7088 ====

auCDtect Лог

-----------------------
DON'T MODIFY THIS FILE
-----------------------
PERFORMER: auCDtect Task Manager, ver. 1.5.1RC6 build 1.5.1.7Copyright (c) 2008-2010 y-soft. All rights reservedhttp://y-soft.org
ANALYZER: auCDtect: CD records authenticity detector, version 0.8.2Copyright (c) 2004 Oleg Berngardt. All rights reserved.Copyright (c) 2004 Alexander Djourik. All rights reserved.
FILE: 24 - Corruption.flac Size: 11558284 Hash: 465E8C50022F62483B4B278BE7408E99 Accuracy: -m0 Conclusion: CDDA 100% Signature: 7D52F551D25504A339A32C7EAC7E79C5F067463EFILE: 25 - Explode With the Rage.flac Size: 26590507 Hash: 71E093B3F1C7AD305E288ED1DECCB5E8 Accuracy: -m0 Conclusion: CDDA 100% Signature: 41A89EE3EA9F068DF83EFD024A45B633636A18D9FILE: 26 - Destruction.flac Size: 17305620 Hash: 56A226994D2DD365F9E3A92F58893A3F Accuracy: -m0 Conclusion: CDDA 100% Signature: AD3909995BA8655C32AE805E4E42EC81B75F1472FILE: 27 - Contracted Akane.flac Size: 10193663 Hash: F614C9ACD55CBF239A0A9DDB007F7AC6 Accuracy: -m0 Conclusion: CDDA 100% Signature: E64A46D4098A860C90205C3EBC7734359674769BFILE: 28 - God.flac Size: 34813974 Hash: 9F9212D7425586F49E4900BA8A2EB102 Accuracy: -m0 Conclusion: CDDA 100% Signature: A9EA273221BE0FBA7B0BF668F5E2130E0AD4AB22FILE: 29 - Meditation.flac Size: 10921143 Hash: 0189B39B7A94DADD9890EF6342731F52 Accuracy: -m0 Conclusion: CDDA 100% Signature: 14981B9AAE0D8EE9F438DA74F3BCEF6D2EFEB7C8FILE: 30 - Gekkou no Chigiri (TV Size).flac Size: 6908514 Hash: FEAAB2D940B32669EF1CEA56913B78D9 Accuracy: -m0 Conclusion: CDDA 100% Signature: E4BDD50101C0E108ABB3A11D3A9D95322DB8002FFILE: 01 - Trance (TV Size).flac Size: 12682608 Hash: 8A3247ACB4ED1FD6A1C2D2A66CC418D7 Accuracy: -m0 Conclusion: CDDA 99% Signature: 04B5B9D76C93E37D34380DE868DD134361D560BEFILE: 02 - Theme of Anecdote.flac Size: 1758432 Hash: 892C5EA5127024AD074ACEC8A8033302 Accuracy: -m0 Conclusion: CDDA 100% Signature: 0452EFE1FCB1CEA8513D269C627C8C124BD2743EFILE: 03 - Self-Righteousness.flac Size: 11108329 Hash: AE72ED9406ED5C45C957C80F98394A87 Accuracy: -m0 Conclusion: CDDA 100% Signature: 03819075F9E1B18C9145FC5FD2C5359067A25D18FILE: 04 - A Pure Place.flac Size: 16550400 Hash: 4007DE9E6D79F9A1E5F6914B610DABC3 Accuracy: -m0 Conclusion: CDDA 100% Signature: 55654A22E2DDC1E72F5F274F38BFB15EA07911AEFILE: 05 - Okinawa.flac Size: 12810596 Hash: 5DDA009E41831260016EC314A616FE6E Accuracy: -m0 Conclusion: CDDA 100% Signature: AD66964D446C4A5571395858035E1760556BB148FILE: 06 - Synchronize.flac Size: 34123734 Hash: 700C3C0CCB8F067FE7B9C9F370631688 Accuracy: -m0 Conclusion: CDDA 100% Signature: 611563BD119810FF0730149A0F5EA8565D5913FBFILE: 07 - The Fateful Day.flac Size: 9753979 Hash: 40C0FE80779419A482F14F7DADC67926 Accuracy: -m0 Conclusion: CDDA 100% Signature: C43405DEA05B76FD79AF18FEFCB6AF6096BE2CA0FILE: 08 - Destrudo -Remixed-.flac Size: 18786330 Hash: 73FA74044240988C3662FBAD7FD88170 Accuracy: -m0 Conclusion: CDDA 100% Signature: 8048CC0061DDF9E1E19B0C27A74A623A10854CE0FILE: 09 - Lets Synchronize and do Some Damage.flac Size: 17278365 Hash: 2C4189433712C5B67FA39A860E91F68C Accuracy: -m0 Conclusion: CDDA 100% Signature: 62DCB7600A8466310AD10EF1B3D2A835227AC4C4FILE: 10 - The Forthcoming.flac Size: 13111492 Hash: 5C5A47C506836109FE8A08E10971A2DE Accuracy: -m0 Conclusion: CDDA 100% Signature: 14EBC03C1A1D5068087710AA423A5255D968A009FILE: 11 - System.flac Size: 10764706 Hash: 74A2CF31BF7E83C94065AA8F8A9C9B6B Accuracy: -m0 Conclusion: CDDA 100% Signature: E64AEAEAE4386DE4954EA08DD9DA9E7A9F7E9DFDFILE: 12 - The Spiritual Stone.flac Size: 16902395 Hash: 73DD3BE3A3FF79B2AA295A79A929DE1C Accuracy: -m0 Conclusion: CDDA 100% Signature: 541B9FFAD021484572C9D42E1EC3EE223B1F9529FILE: 13 - Theme of Grief.flac Size: 4828281 Hash: 567D8A681BA4183A7FA2D089BDFF952E Accuracy: -m0 Conclusion: CDDA 100% Signature: D36CBA90406C40B165B3337735FF5249C0E5601BFILE: 14 - Akane Piano Ver..flac Size: 7522471 Hash: 548D6D518A3432ADB778C20808F42BE4 Accuracy: -m0 Conclusion: CDDA 94% Signature: 2CC943D7F91CC5410AAF93FF21641FF85097E7C9FILE: 15 - Reishin Piano Ver..flac Size: 8361782 Hash: 958CB06E225F0551C1A9CBD565632032 Accuracy: -m0 Conclusion: CDDA 100% Signature: F9975F1F2CAEF35FDBA44B7FAF8013B07365C667FILE: 16 - Die.flac Size: 6372552 Hash: 439D99E0162DAD641C4719C2E6E4D21A Accuracy: -m0 Conclusion: CDDA 43% Signature: 1F17463D5FABDC8381604A7A163D27E89BB3148CFILE: 17 - Tender-Eyed.flac Size: 10573022 Hash: 67E6C30C39BD6C52D4CAF539A0F7986A Accuracy: -m0 Conclusion: CDDA 94% Signature: 37E81467773AAADA84EEBAB93ED350F9690D5B84FILE: 18 - Tenderness.flac Size: 8963561 Hash: 5E9686C7399EE23EC5390298120D3283 Accuracy: -m0 Conclusion: MPEG 80% Signature: 32A0C0AD06DB7D56DC07B33F957D17B809501706FILE: 19 - Elegant Days.flac Size: 5816276 Hash: E6CDE3505E33BFAA6F886D280C349A42 Accuracy: -m0 Conclusion: CDDA 94% Signature: B19892FE010ABBA2BEDD30F3EDE07005D4DB9BE3FILE: 20 - Pepepopo.flac Size: 3337204 Hash: 9381828717BFE309A4D3E4108AD04C6C Accuracy: -m0 Conclusion: MPEG 91% Signature: 2A33E1FC361D46E24ED3C7462E5BF37192D6BB90FILE: 21 - Emotional Conflict.flac Size: 6749407 Hash: 9381D61C693889E4AAC2F6DD4332B71A Accuracy: -m0 Conclusion: CDDA 54% Signature: 580CC32C79421872D4EE6CBD47CCE3DCEF149BEDFILE: 22 - Doppelliner.flac Size: 8669368 Hash: 177ADB95EC2E458B3733858681546921 Accuracy: -m0 Conclusion: CDDA 85% Signature: 39F4B809582D1F51C4F4581FA9DF2189A6DE9E91FILE: 23 - God Who Punishes.flac Size: 11534875 Hash: 506A8784D3620A097C686041825EB9D5 Accuracy: -m0 Conclusion: CDDA 100% Signature: B66C44265B0C6311E43EF49D5BF386D6CCC0E95E

Audition Спектр

2009 - OP

ЕАС Лог

Exact Audio Copy V1.0 beta 3 from 29. August 2011
EAC extraction logfile from 31. August 2013, 21:41
Minami Kuribayashi / Kurokami OP
Used drive : PLEXTOR CD-R PREMIUM2 Adapter: 0 ID: 0
Read mode : SecureUtilize accurate stream : YesDefeat audio cache : YesMake use of C2 pointers : No
Read offset correction : 30Overread into Lead-In and Lead-Out : YesFill up missing offset samples with silence : YesDelete leading and trailing silent blocks : NoNull samples used in CRC calculations : YesUsed interface : Native Win32 interface for Win NT & 2000Gap handling : Appended to previous track
Used output format : User Defined EncoderSelected bitrate : 1024 kBit/sQuality : HighAdd ID3 tag : NoCommand line compressor : C:\Program Files (x86)\Exact Audio Copy\Flac\flac.exeAdditional command line options : -V -8 -T "Genre=%genre%" -T "Artist=%artist%" -T "Title=%title%" -T "Album=%albumtitle%" -T "Date=%year%" -T "Tracknumber=%tracknr%" -T "Comment=%comment%" %source%
TOC of the extracted CD
Track | Start | Length | Start sector | End sector --------------------------------------------------------- 1 | 0:00.00 | 4:17.19 | 0 | 19293 2 | 4:17.19 | 4:42.29 | 19294 | 40472 3 | 8:59.48 | 4:16.44 | 40473 | 59716 4 | 13:16.17 | 4:39.55 | 59717 | 80696
Track 1
Filename C:\RIPs\01 - Sympathizer.wav
Pre-gap length 0:00:02.00
Peak level 100.0 % Extraction speed 8.8 X Track quality 100.0 % Test CRC DDD3781A Copy CRC DDD3781A Accurately ripped (confidence 2) [16FBA7EF] (AR v1) Copy OK
Track 2
Filename C:\RIPs\02 - Sora no Kotae.wav
Pre-gap length 0:00:03.47
Peak level 100.0 % Extraction speed 9.8 X Track quality 100.0 % Test CRC 17559AE2 Copy CRC 17559AE2 Accurately ripped (confidence 2) [5F002858] (AR v1) Copy OK
Track 3
Filename C:\RIPs\03 - Sympathizer (Off Vocal).wav
Pre-gap length 0:00:04.47
Peak level 100.0 % Extraction speed 10.4 X Track quality 100.0 % Test CRC 3B4C9F5C Copy CRC 3B4C9F5C Accurately ripped (confidence 1) [3897374B] (AR v1) Copy OK
Track 4
Filename C:\RIPs\04 - Sora no Kotae (Off Vocal).wav
Pre-gap length 0:00:03.47
Peak level 100.0 % Extraction speed 11.2 X Track quality 100.0 % Test CRC 72F3C846 Copy CRC 72F3C846 Accurately ripped (confidence 1) [EB17CC5F] (AR v1) Copy OK
All tracks accurately ripped
No errors occurred
End of status report
---- CUETools DB Plugin V2.1.4
[CTDB TOCID: 1to05q6KN6tJDKNChit8jXnCoq0-] foundSubmit result: 1to05q6KN6tJDKNChit8jXnCoq0- has been confirmedTrack | CTDB Status 1 | (3/3) Accurately ripped 2 | (3/3) Accurately ripped 3 | (3/3) Accurately ripped 4 | (3/3) Accurately ripped
==== Log checksum FAFACCD8B12C7F66EF5ACF7675F87CCF7E9C9B813F7E65FEF2AA4DBA6EF1B7BE ====

auCDtect Лог

-----------------------
DON'T MODIFY THIS FILE
-----------------------
PERFORMER: auCDtect Task Manager, ver. 1.5.1RC6 build 1.5.1.7Copyright (c) 2008-2010 y-soft. All rights reservedhttp://y-soft.org
ANALYZER: auCDtect: CD records authenticity detector, version 0.8.2Copyright (c) 2004 Oleg Berngardt. All rights reserved.Copyright (c) 2004 Alexander Djourik. All rights reserved.
FILE: 02 - Sora no Kotae.flac Size: 38527538 Hash: 481B10DB78E4B61B48FE03A1858C7C22 Accuracy: -m0 Conclusion: CDDA 100% Signature: 125C48DF23C75153958490EE8B7EA499C3B9F332FILE: 03 - Sympathizer (Off Vocal).flac Size: 35450716 Hash: B7F533D6164DE9764016EBBBCFC81961 Accuracy: -m0 Conclusion: CDDA 100% Signature: FFAAFCA8C024078074F22B60E6EE50767B2FAFC8FILE: 04 - Sora no Kotae (Off Vocal).flac Size: 38218743 Hash: 2354E38525E36B1FF2DA419F1802E907 Accuracy: -m0 Conclusion: CDDA 99% Signature: AF347BA3D740DEFCAD68E9F72D87D34EB009D0EAFILE: 01 - Sympathizer.flac Size: 35851448 Hash: 339256199F6C9F620C849312C7713FA3 Accuracy: -m0 Conclusion: CDDA 100% Signature: 1368CF0452BA08281BAACDF4EED803D19CB34E57

Audition Спектр

2009 - ED

ЕАС Лог

Exact Audio Copy V1.0 beta 3 from 29. August 2011
EAC extraction logfile from 31. August 2013, 19:13
Yosei Teikoku / Kurokami ED
Used drive : PLEXTOR CD-R PREMIUM2 Adapter: 0 ID: 0
Read mode : SecureUtilize accurate stream : YesDefeat audio cache : YesMake use of C2 pointers : No
Read offset correction : 30Overread into Lead-In and Lead-Out : YesFill up missing offset samples with silence : YesDelete leading and trailing silent blocks : NoNull samples used in CRC calculations : YesUsed interface : Native Win32 interface for Win NT & 2000Gap handling : Appended to previous track
Used output format : User Defined EncoderSelected bitrate : 1024 kBit/sQuality : HighAdd ID3 tag : NoCommand line compressor : C:\Program Files (x86)\Exact Audio Copy\Flac\flac.exeAdditional command line options : -V -8 -T "Genre=%genre%" -T "Artist=%artist%" -T "Title=%title%" -T "Album=%albumtitle%" -T "Date=%year%" -T "Tracknumber=%tracknr%" -T "Comment=%comment%" %source%
TOC of the extracted CD
Track | Start | Length | Start sector | End sector --------------------------------------------------------- 1 | 0:00.00 | 4:43.58 | 0 | 21282 2 | 4:43.58 | 3:56.17 | 21283 | 38999 3 | 8:40.00 | 3:58.42 | 39000 | 56891 4 | 12:38.42 | 3:45.41 | 56892 | 73807 5 | 16:24.08 | 5:36.42 | 73808 | 99049 6 | 22:00.50 | 4:42.59 | 99050 | 120258
Track 1
Filename C:\RIPs\01 - Irodori no Nai Sekai.wav
Pre-gap length 0:00:02.00
Peak level 99.9 % Extraction speed 8.9 X Track quality 100.0 % Test CRC 8A708D56 Copy CRC 8A708D56 Accurately ripped (confidence 1) [1E2ADEBC] (AR v2) Copy OK
Track 2
Filename C:\RIPs\02 - Destrudo.wav
Pre-gap length 0:00:02.46
Peak level 99.9 % Extraction speed 9.6 X Track quality 100.0 % Test CRC 7A2CF2D5 Copy CRC 7A2CF2D5 Accurately ripped (confidence 1) [3A8D88D4] (AR v2) Copy OK
Track 3
Filename C:\RIPs\03 - Valtica.wav
Pre-gap length 0:00:01.07
Peak level 99.9 % Extraction speed 10.3 X Track quality 100.0 % Test CRC 37FDF134 Copy CRC 37FDF134 Accurately ripped (confidence 1) [2A506802] (AR v2) Copy OK
Track 4
Filename C:\RIPs\04 - Tooi Maboroshi.wav
Pre-gap length 0:00:02.24
Peak level 99.1 % Extraction speed 10.9 X Track quality 100.0 % Test CRC EAE0AC02 Copy CRC EAE0AC02 Accurately ripped (confidence 1) [DAF0C5DE] (AR v2) Copy OK
Track 5
Filename C:\RIPs\05 - Alte Burg.wav
Pre-gap length 0:00:01.16
Peak level 99.9 % Extraction speed 11.8 X Track quality 100.0 % Test CRC 242BC528 Copy CRC 242BC528 Accurately ripped (confidence 1) [0D69A21B] (AR v2) Copy OK
Track 6
Filename C:\RIPs\06 - Irodori no Nai Sekai [Instrumental].wav
Pre-gap length 0:00:04.12
Peak level 99.9 % Extraction speed 12.4 X Track quality 100.0 % Test CRC 35479AB3 Copy CRC 35479AB3 Accurately ripped (confidence 1) [03413C9E] (AR v2) Copy OK
All tracks accurately ripped
No errors occurred
End of status report
---- CUETools DB Plugin V2.1.4
[CTDB TOCID: LJLcfpXWEtHqLXYBgE6T0TGJRdY-] foundSubmit result: LJLcfpXWEtHqLXYBgE6T0TGJRdY- has been confirmedTrack | CTDB Status 1 | (3/3) Accurately ripped 2 | (3/3) Accurately ripped 3 | (3/3) Accurately ripped 4 | (3/3) Accurately ripped 5 | (3/3) Accurately ripped 6 | (3/3) Accurately ripped
==== Log checksum B70BDF2B585D0AD0DFC0D8792682BAFCA87E85407977A18E7401E3E0BB557AB4 ====

auCDtect Лог

-----------------------
DON'T MODIFY THIS FILE
-----------------------
PERFORMER: auCDtect Task Manager, ver. 1.5.1RC6 build 1.5.1.7Copyright (c) 2008-2010 y-soft. All rights reservedhttp://y-soft.org
ANALYZER: auCDtect: CD records authenticity detector, version 0.8.2Copyright (c) 2004 Oleg Berngardt. All rights reserved.Copyright (c) 2004 Alexander Djourik. All rights reserved.
FILE: 04 - Tooi Maboroshi.flac Size: 26228259 Hash: 66FE01ED76F1972D59EA26A2BD47D179 Accuracy: -m0 Conclusion: CDDA 100% Signature: CDF128C5F976BC2D22E73722A8C5912905242843FILE: 05 - Alte Burg.flac Size: 44256854 Hash: EF1AF627C7A04372A5D1B99DAA70167F Accuracy: -m0 Conclusion: CDDA 100% Signature: 2DEED6F7D127DDFD56466BFDC6530F2D094D92EEFILE: 06 - Irodori no Nai Sekai [Instrumental].flac Size: 32946030 Hash: D9607493502135372B10CCAD09A1F955 Accuracy: -m0 Conclusion: CDDA 100% Signature: 6CB41657A7D7D5CC21087322938FD6DA819AE23CFILE: 01 - Irodori no Nai Sekai.flac Size: 34112190 Hash: 7CB2812C85F0A505E677E97A15B06C30 Accuracy: -m0 Conclusion: CDDA 100% Signature: 7725CD55B1F3B2715ACD9368DEAF79F31D32EFD2FILE: 02 - Destrudo.flac Size: 31047910 Hash: 9C9AF734EED56B0645D84CB25B8CECCE Accuracy: -m0 Conclusion: CDDA 100% Signature: 3C1DCA7BCDDCF6913EE4CB6F206BE225D348880EFILE: 03 - Valtica.flac Size: 31740315 Hash: 127A50E6FEF169A1C7E5E1BBD20201C9 Accuracy: -m0 Conclusion: CDDA 100% Signature: 2962BFB35CD9A314EE68150072A8D828E622593D

Audition Спектр

2009 - OP 2

ЕАС Лог

Exact Audio Copy V1.0 beta 3 from 29. August 2011
EAC extraction logfile from 1. September 2013, 0:23
Granrodeo / Kurokami OP 2
Used drive : PLEXTOR CD-R PREMIUM2 Adapter: 0 ID: 0
Read mode : SecureUtilize accurate stream : YesDefeat audio cache : YesMake use of C2 pointers : No
Read offset correction : 30Overread into Lead-In and Lead-Out : YesFill up missing offset samples with silence : YesDelete leading and trailing silent blocks : NoNull samples used in CRC calculations : YesUsed interface : Native Win32 interface for Win NT & 2000Gap handling : Appended to previous track
Used output format : User Defined EncoderSelected bitrate : 1024 kBit/sQuality : HighAdd ID3 tag : NoCommand line compressor : C:\Program Files (x86)\Exact Audio Copy\Flac\flac.exeAdditional command line options : -V -8 -T "Genre=%genre%" -T "Artist=%artist%" -T "Title=%title%" -T "Album=%albumtitle%" -T "Date=%year%" -T "Tracknumber=%tracknr%" -T "Comment=%comment%" %source%
TOC of the extracted CD
Track | Start | Length | Start sector | End sector --------------------------------------------------------- 1 | 0:00.00 | 4:52.14 | 0 | 21913 2 | 4:52.14 | 6:19.07 | 21914 | 50345 3 | 11:11.21 | 4:51.39 | 50346 | 72209 4 | 16:02.60 | 6:16.71 | 72210 | 100480
Track 1
Filename C:\RIPs\01 - Trance.wav
Pre-gap length 0:00:02.00
Peak level 98.8 % Extraction speed 8.9 X Track quality 100.0 % Test CRC 984D4699 Copy CRC 984D4699 Track not present in AccurateRip database Copy OK
Track 2
Filename C:\RIPs\02 - Nejireta Yugami.wav
Peak level 98.8 % Extraction speed 9.2 X Track quality 99.9 % Test CRC 47C9B526 Copy CRC 47C9B526 Track not present in AccurateRip database Copy OK
Track 3
Filename C:\RIPs\03 - Trance (Off Vocal).wav
Peak level 95.5 % Extraction speed 9.7 X Track quality 99.9 % Test CRC 430B65F4 Copy CRC 430B65F4 Track not present in AccurateRip database Copy OK
Track 4
Filename C:\RIPs\04 - Nejireta Yugami (Off Vocal).wav
Peak level 98.8 % Extraction speed 11.9 X Track quality 100.0 % Test CRC 89FDF173 Copy CRC 89FDF173 Track not present in AccurateRip database Copy OK
None of the tracks are present in the AccurateRip database
No errors occurred
End of status report
---- CUETools DB Plugin V2.1.4
[CTDB TOCID: uJDb..O1OWBpgan3MU1kMyUbHns-] disk not present in databaseSubmit result: uJDb..O1OWBpgan3MU1kMyUbHns- has been uploaded
==== Log checksum 73AB1C46F8E3A24B3D513699A22D4D9CC539406C6D28B6D9B917E7B2D2E1E91C ====

auCDtect Лог

-----------------------
DON'T MODIFY THIS FILE
-----------------------
PERFORMER: auCDtect Task Manager, ver. 1.5.1RC6 build 1.5.1.7Copyright (c) 2008-2010 y-soft. All rights reservedhttp://y-soft.org
ANALYZER: auCDtect: CD records authenticity detector, version 0.8.2Copyright (c) 2004 Oleg Berngardt. All rights reserved.Copyright (c) 2004 Alexander Djourik. All rights reserved.
FILE: 02 - Nejireta Yugami.flac Size: 50283540 Hash: E8F8EECDC045D5C5695985BD85DA4928 Accuracy: -m0 Conclusion: CDDA 100% Signature: B9FF388823AB13A5237D00F5DE09679AA7D2C36EFILE: 03 - Trance (Off Vocal).flac Size: 40387697 Hash: D22FC0AB81A6AA9CFADFAE02B23BF9C5 Accuracy: -m0 Conclusion: CDDA 100% Signature: 3D88CD4A6CA5D91ACACF8E211EA0966492CA62EAFILE: 04 - Nejireta Yugami (Off Vocal).flac Size: 49390024 Hash: 0377C68BE032678A5F830184C27015CE Accuracy: -m0 Conclusion: CDDA 100% Signature: 31D7A810ECC18429DA573AD3DE32328C0ECEF9BFFILE: 01 - Trance.flac Size: 40998010 Hash: 36B8C319715DFCF9D4851D9431B255DB Accuracy: -m0 Conclusion: CDDA 100% Signature: 6E2032EA755C02BA64FC93A02FF31686DC84B8AB

Audition Спектр

2009 - ED 2

ЕАС Лог

Exact Audio Copy V1.0 beta 3 from 29. August 2011
EAC extraction logfile from 31. August 2013, 22:01
Yosei Teikoku / Kurokami ED 2
Used drive : PLEXTOR CD-R PREMIUM2 Adapter: 0 ID: 0
Read mode : SecureUtilize accurate stream : YesDefeat audio cache : YesMake use of C2 pointers : No
Read offset correction : 30Overread into Lead-In and Lead-Out : YesFill up missing offset samples with silence : YesDelete leading and trailing silent blocks : NoNull samples used in CRC calculations : YesUsed interface : Native Win32 interface for Win NT & 2000Gap handling : Appended to previous track
Used output format : User Defined EncoderSelected bitrate : 1024 kBit/sQuality : HighAdd ID3 tag : NoCommand line compressor : C:\Program Files (x86)\Exact Audio Copy\Flac\flac.exeAdditional command line options : -V -8 -T "Genre=%genre%" -T "Artist=%artist%" -T "Title=%title%" -T "Album=%albumtitle%" -T "Date=%year%" -T "Tracknumber=%tracknr%" -T "Comment=%comment%" %source%
TOC of the extracted CD
Track | Start | Length | Start sector | End sector --------------------------------------------------------- 1 | 0:00.00 | 3:50.49 | 0 | 17298 2 | 3:50.49 | 3:47.40 | 17299 | 34363 3 | 7:38.14 | 3:25.65 | 34364 | 49803 4 | 11:04.04 | 3:48.49 | 49804 | 66952
Track 1
Filename C:\RIPs\01 - Gekko no Chigiri.wav
Pre-gap length 0:00:02.00
Peak level 98.9 % Extraction speed 8.7 X Track quality 100.0 % Test CRC F5545C76 Copy CRC F5545C76 Track not present in AccurateRip database Copy OK
Track 2
Filename C:\RIPs\02 - Simulacra.wav
Pre-gap length 0:00:01.74
Peak level 100.0 % Extraction speed 9.4 X Track quality 100.0 % Test CRC A7569AD1 Copy CRC A7569AD1 Track not present in AccurateRip database Copy OK
Track 3
Filename C:\RIPs\03 - Sacrifice.wav
Pre-gap length 0:00:01.00
Peak level 94.5 % Extraction speed 10.0 X Track quality 100.0 % Test CRC 80F4279D Copy CRC 80F4279D Track not present in AccurateRip database Copy OK
Track 4
Filename C:\RIPs\04 - Gekko no Chigiri (Instrumental).wav
Pre-gap length 0:00:03.00
Peak level 99.0 % Extraction speed 10.7 X Track quality 100.0 % Test CRC 6BF76DFB Copy CRC 6BF76DFB Track not present in AccurateRip database Copy OK
None of the tracks are present in the AccurateRip database
No errors occurred
End of status report
---- CUETools DB Plugin V2.1.4
[CTDB TOCID: a.Ygdrz_lY97s7OhJriTZ42hHCE-] foundSubmit result: a.Ygdrz_lY97s7OhJriTZ42hHCE- has been confirmedTrack | CTDB Status 1 | (1/1) Accurately ripped 2 | (1/1) Accurately ripped 3 | (1/1) Accurately ripped 4 | (1/1) Accurately ripped
==== Log checksum E170A6A8214DAFBE349F5636D6527D79096827E21D0306C262ECD6A97B2D08DD ====

auCDtect Лог

-----------------------
DON'T MODIFY THIS FILE
-----------------------
PERFORMER: auCDtect Task Manager, ver. 1.5.1RC6 build 1.5.1.7Copyright (c) 2008-2010 y-soft. All rights reservedhttp://y-soft.org
ANALYZER: auCDtect: CD records authenticity detector, version 0.8.2Copyright (c) 2004 Oleg Berngardt. All rights reserved.Copyright (c) 2004 Alexander Djourik. All rights reserved.
FILE: 03 - Sacrifice.flac Size: 27341720 Hash: 1A090FD632C2D7F6FCE96954DBA0320D Accuracy: -m0 Conclusion: CDDA 100% Signature: 23112CEAE3A5922C951B574C1760650EBF2C388CFILE: 04 - Gekko no Chigiri (Instrumental).flac Size: 25924487 Hash: AD86F58F062D2BC008234369F9C337F8 Accuracy: -m0 Conclusion: CDDA 100% Signature: 014603DA2EFCCFB2D3C535713D59CECBA6DDC158FILE: 01 - Gekko no Chigiri.flac Size: 27062746 Hash: FEB52177018398F748412A489EC9544F Accuracy: -m0 Conclusion: CDDA 100% Signature: 338542156806BB07B6ACA24EF6552EB4848CEF84FILE: 02 - Simulacra.flac Size: 27568371 Hash: 6C2B076D743890A135001F544B8B92BB Accuracy: -m0 Conclusion: CDDA 100% Signature: C5C0922E6944902D28C1C41545BB91B5959AB89D

Audition Спектр

- Приятного прослушивания
Other forum [Profile] [PM]
Display posts from previous:    
Reply to topic

The time now is: Today 00:43

All times are GMT + 3 Hours



You cannot post new topics in this forum
You cannot reply to topics in this forum
You cannot edit your posts in this forum
You cannot delete your posts in this forum
You cannot vote in polls in this forum
You cannot attach files in this forum
You cannot download files in this forum