Today is a free download without charge Download

And I Love Her (The Beatles - A Hard Day's Night in COLOR, HD&HQ) [1964, Rock Music, HDTV 1080i]

Reply to topic
 
Author
Message

Omen ®

Longevity: 8 years 4 months

Posts: 181087

Торрент-статистика

Post 01-Sep-2013 12:54

[Quote]

And I Love Her (The Beatles - A Hard Day's Night in COLOR, HD&HQ)
Жанр: Rock Music
Продолжительность: 00:02:35
Год выпуска: 1964
Описание: Проведена полная колоризация клипа And I Love Her - The Beatles из черно-белого фильма A Hard Day's Night выпуска 1964г.
Доп. информация: Клип выполнен в высоком разрешении с хорошим качеством звука.
Предварительно можно посмотреть по ссылке
http://www.youtube.com/watch?v=fvlyg6-Qo6s
Качество: HDTV 1080i
Контейнер: M2TS
Видео кодек: H.264
Аудио кодек: AC3
Видео: AVC 1920x1080 16:9 10000 kbps 29.97 fps
Аудио: Audio Coding 3 5.1 448 kbps 48 kHz 6 ch

Отчёт MediaInfo / BDInfo

I:\HARD_DAYS_COL\AndILoveHer_54Langust.m2ts General #0 ID : 0 (0x0) Complete name : I:\HARD_DAYS_COL\AndILoveHer_54Langust.m2ts Format : BDAV Format/Info : Advanced Video Codec File size : 198 MiB Duration : 2mn 36s Overall bit rate : 10.6 Mbps Maximum Overall bit rate : 48.0 Mbps Video #4113 ID : 4113 (0x1011) Menu ID : 1 (0x1) Format : AVC Format/Info : Advanced Video Codec Format profile : [email protected] Format settings, CABAC : Yes Format settings, ReFrames : 2 frames Codec ID : 27 Duration : 2mn 35s Bit rate mode : Variable Bit rate : 9 765 Kbps Maximum bit rate : 20.0 Mbps Width : 1 920 pixels Height : 1 080 pixels Display aspect ratio : 16:9 Frame rate : 29.970 fps Standard : NTSC Color space : YUV Chroma subsampling : 4:2:0 Bit depth : 8 bits Scan type : Interlaced Scan order : Top Field First Bits/(Pixel*Frame) : 0.157 Stream size : 181 MiB (91%) Color primaries : BT.709-5, BT.1361, IEC 61966-2-4, SMPTE RP177 Transfer characteristics : BT.709-5, BT.1361 Matrix coefficients : BT.709-5, BT.1361, IEC 61966-2-4 709, SMPTE RP177 Audio #4352 ID : 4352 (0x1100) Menu ID : 1 (0x1) Format : AC-3 Format/Info : Audio Coding 3 Mode extension : CM (complete main) Codec ID : 129 Duration : 2mn 35s Bit rate mode : Constant Bit rate : 448 Kbps Channel(s) : 6 channels Channel positions : Front: L C R, Side: L R, LFE Sampling rate : 48.0 KHz Bit depth : 16 bits Compression mode : Lossy Stream size : 8.31 MiB (4%)
Other forum [Profile] [PM]
Display posts from previous:    
Reply to topic

The time now is: Today 02:18

All times are GMT + 3 Hours



You cannot post new topics in this forum
You cannot reply to topics in this forum
You cannot edit your posts in this forum
You cannot delete your posts in this forum
You cannot vote in polls in this forum
You cannot attach files in this forum
You cannot download files in this forum