Today is a free download without charge Download

Я люблю неприятности / I Love Trouble (Чарльз Шайер) [1994 г., боевик, мелодрама, комедия, BDRip 720p]

Reply to topic
 
Author
Message

Delia ®

Gender:

Longevity: 9 years 6 months

Posts: 1821

Торрент-статистика

Post 18-Sep-2011 23:40

[Quote]

Я люблю неприятностиI Love Trouble Год выпуска: 1994
Страна: США
Жанр: боевик, мелодрама, комедия
Продолжительность: 02:02:42
Перевод: Профессиональный (многоголосый, закадровый)
Режиссер: Чарльз Шайер
Продюссер: Брюс А. Блок, Джули Б. Крэйн, Нэнси Мейерс
Сценарий: Нэнси Мейерс, Чарльз Шайер
Премьера в мире: 4 июня 1994
В ролях: Ник Нолти, Джулия Робертс, Сол Рубинек, Джеймс Ребхорн, Роберт Лоджа, Келли Разерфорд, Олимпия Дукакис, Марша Мейсон, Юджин Леви, Чарльз Мартин Смит
Описание: Главные герои — конкурирующие журналисты, которые постоянно гоняются за сенсациями и также постоянно нарываются на неприятности.Пытаясь избавиться друг от друга в расследовании таинственной железнодорожной катастрофы, они случайно натыкаются на страшную правду, которая бросает их в объятия страха и ... в объятия друг друга. Никогда любовь не была так опасна!
Качество: BDRip 720p
Формат: MKV
Видео кодек: H.264
Аудио кодек: AC3
Видео: English, 4395 Кбит/сек, 1280*720 (16:9), в 23,976 кадр/сек, AVC ([email protected])
Аудио: Russian, 384 Кбит/сек, 48,0 КГц, 16 бит, 6 канала(ов), AC-3
Аудио: English, 320 Кбит/сек, 48,0 КГц, 16 бит, 6 канала(ов), AC-3
Субтитры:Russian, English ( VobSub )

MI:

Код:
Общее
Уникальный идентификатор         : 182917018241337017043246345981507006050 (0x899C8949716A7DA1B1A9D5802EFDEE62)
Полное имя                       : E:\торрент\I Love Trouble (1994)BDRip720p.mkv
Формат                           : Matroska
Размер файла                     : 4,38 Гбайт
Продолжительность                : 2 ч. 2 м.
Общий поток                      : 5099 Кбит/сек
Дата кодирования                 : UTC 2011-09-18 19:45:49
Программа кодирования            : mkvmerge v4.9.1 ('Ich will') built on Jul 11 2011 23:53:15
Библиотека кодирования           : libebml v1.2.1 + libmatroska v1.1.1
Видео
Идентификатор                    : 1
Формат                           : AVC
Формат/Информация                : Advanced Video Codec
Профиль формата                  : [email protected]
Параметр CABAC формата           : Да
Параметр ReFrames формата        : 9 кадры
Идентификатор кодека             : V_MPEG4/ISO/AVC
Продолжительность                : 2 ч. 2 м.
Битрейт                          : 4395 Кбит/сек
Ширина                           : 1280 пикс.
Высота                           : 720 пикс.
Соотношение сторон               : 16:9
Частота кадров                   : 23,976 кадр/сек
Цветовое пространство            : YUV
Подвыборка цветности             : 4:2:0
Битовая глубина                  : 8 бит
Тип развёртки                    : Прогрессивная
Бит/(Пиксели*Кадры)              : 0.199
Размер потока                    : 3,69 Гбайт (84%)
Библиотека кодирования           : x264 core 116 r2074 2641b9e
Настройки программы              : cabac=1 / ref=9 / deblock=1:-2:-2 / analyse=0x3:0x133 / me=umh / subme=9 / psy=1 / psy_rd=1.00:0.15 / mixed_ref=1 / me_range=32 / chroma_me=1 / trellis=2 / 8x8dct=1 / cqm=0 / deadzone=21,11 / fast_pskip=0 / chroma_qp_offset=-3 / threads=6 / sliced_threads=0 / nr=0 / decimate=1 / interlaced=0 / bluray_compat=0 / constrained_intra=0 / bframes=9 / b_pyramid=2 / b_adapt=2 / b_bias=0 / direct=3 / weightb=1 / open_gop=0 / weightp=2 / keyint=250 / keyint_min=23 / scenecut=40 / intra_refresh=0 / rc=2pass / mbtree=0 / bitrate=4395 / ratetol=1.0 / qcomp=1.00 / qpmin=10 / qpmax=51 / qpstep=4 / cplxblur=20.0 / qblur=0.5 / ip_ratio=1.40 / pb_ratio=1.30 / aq=1:1.00
Язык                             : English
Аудио #1
Идентификатор                    : 2
Формат                           : AC-3
Формат/Информация                : Audio Coding 3
Расширение режима                : CM (complete main)
Идентификатор кодека             : A_AC3
Продолжительность                : 2 ч. 2 м.
Вид битрейта                     : Постоянный
Битрейт                          : 384 Кбит/сек
Канал(ы)                         : 6 канала(ов)
Расположение каналов             : Front: L C R, Side: L R, LFE
Частота                          : 48,0 КГц
Битовая глубина                  : 16 бит
Метод сжатия                     : С потерями
Размер потока                    : 337 Мбайт (8%)
Язык                             : Russian
Аудио #2
Идентификатор                    : 3
Формат                           : AC-3
Формат/Информация                : Audio Coding 3
Расширение режима                : CM (complete main)
Идентификатор кодека             : A_AC3
Продолжительность                : 2 ч. 2 м.
Вид битрейта                     : Постоянный
Битрейт                          : 320 Кбит/сек
Канал(ы)                         : 6 канала(ов)
Расположение каналов             : Front: L C R, Side: L R, LFE
Частота                          : 48,0 КГц
Битовая глубина                  : 16 бит
Метод сжатия                     : С потерями
Размер потока                    : 281 Мбайт (6%)
Язык                             : English
Текст #1
Идентификатор                    : 4
Формат                           : VobSub
Режим смешивания                 : zlib
Идентификатор кодека             : S_VOBSUB
Идентификатор кодека/Информация  : The same subtitle format used on DVDs
Язык                             : Russian
Текст #2
Идентификатор                    : 5
Формат                           : VobSub
Режим смешивания                 : zlib
Идентификатор кодека             : S_VOBSUB
Идентификатор кодека/Информация  : The same subtitle format used on DVDs
Язык                             : English
Меню
00:00:00.000                     : en:Chapter 01
00:09:06.546                     : en:Chapter 02
00:17:28.380                     : en:Chapter 03
00:30:21.194                     : en:Chapter 04
00:42:42.393                     : en:Chapter 05
00:53:02.012                     : en:Chapter 06
01:04:52.805                     : en:Chapter 07
01:24:11.629                     : en:Chapter 08
01:37:58.914                     : en:Chapter 09
01:56:09.337                     : en:Chapter 10
01:58:31.813                     : en:Chapter 11
02:02:42.355                     : en:Chapter 12

Скриншоты

               

_________________
Человек – это канат, натянутый между животным и сверхчеловеком, – канат над пропастью.
В человеке ценно то, что он мост, а не цель. Фридрих Ницше


Last edited by Delia on 2011-09-18 23:40; edited 1 time in total
Other forum [Profile] [PM]
Display posts from previous:    
Reply to topic

The time now is: Today 19:55

All times are GMT + 3 Hours



You cannot post new topics in this forum
You cannot reply to topics in this forum
You cannot edit your posts in this forum
You cannot delete your posts in this forum
You cannot vote in polls in this forum
You cannot attach files in this forum
You cannot download files in this forum