Today is a free download without charge Download

Kreator - Dying Alive [2013, Thrash Metal, BDRip 1080p]

Reply to topic
 
Author
Message

Omen ®

Longevity: 8 years 3 months

Posts: 181087

Торрент-статистика

Post 31-Aug-2013 16:33

[Quote]

Kreator - Dying Alive
Жанр: Thrash Metal
Продолжительность: 01:32:39
Год выпуска: 2013
Tracklist:
01. Intro: Mars Mantra
02. Phantom Antichrist
03 .From Flood into Fire
04. Enemy of God
05. Phobia
06. Hordes of Chaos
07. Civilization Collapse
08. Voices of the Dead
09. Extreme Aggression
10. People of the Lie
11. Death to the World
12. Endless Pain
13. Pleasure to Kill
14. Intro 2 - The Patriarch
15. Violent Revolution
16. United in Hate
17. Betrayer
18. Flag of Hate
19. Tormentor
20. Outro
Доп. информация: Сцена - SEMTEX
Качество: BDRip 1080p
Контейнер: MKV
Видео кодек: H.264
Аудио кодек: DTS
Видео: MPEG4 Video (H264) 1920x1080 10317kbps 24fps
Аудио: DTS 1510kbps 48000Hz 6ch

MediaInfo

GeneralUnique ID : 250987297527735754177775024626544014848 (0xBCD2652BA095783D8B1349602BB9F600)Complete name : C:\Kreator - Dying Alive 1080p.mkvFormat : MatroskaFormat version : Version 2File size : 7.66 GiBDuration : 1h 32mnOverall bit rate : 11.8 MbpsEncoded date : UTC 2013-08-30 23:54:40Writing application : mkvmerge v6.3.0 ('You can't stop me!') built on Jun 28 2013 20:09:41Writing library : libebml v1.3.0 + libmatroska v1.4.0
VideoID : 1Format : AVCFormat/Info : Advanced Video CodecFormat profile : [email protected] settings, CABAC : YesFormat settings, ReFrames : 4 framesCodec ID : V_MPEG4/ISO/AVCDuration : 1h 32mnBit rate : 10.3 MbpsWidth : 1 920 pixelsHeight : 1 080 pixelsDisplay aspect ratio : 16:9Frame rate mode : ConstantFrame rate : 24.000 fpsColor space : YUVChroma subsampling : 4:2:0Bit depth : 8 bitsScan type : ProgressiveBits/(Pixel*Frame) : 0.207Stream size : 6.53 GiB (85%)Writing library : x264 core 138 r2358 9e941d1Encoding settings : cabac=1 / ref=4 / deblock=1:0:0 / analyse=0x3:0x133 / me=umh / subme=7 / psy=1 / psy_rd=1.00:0.00 / mixed_ref=1 / me_range=16 / chroma_me=1 / trellis=1 / 8x8dct=1 / cqm=0 / deadzone=21,11 / fast_pskip=0 / chroma_qp_offset=-2 / threads=18 / lookahead_threads=3 / sliced_threads=0 / nr=0 / decimate=1 / interlaced=0 / bluray_compat=0 / constrained_intra=0 / bframes=3 / b_pyramid=2 / b_adapt=1 / b_bias=0 / direct=1 / weightb=1 / open_gop=0 / weightp=2 / keyint=240 / keyint_min=24 / scenecut=40 / intra_refresh=0 / rc_lookahead=40 / rc=2pass / mbtree=1 / bitrate=10317 / ratetol=1.0 / qcomp=0.60 / qpmin=10 / qpmax=51 / qpstep=4 / cplxblur=20.0 / qblur=0.5 / ip_ratio=1.40 / aq=1:1.00Default : YesForced : No
AudioID : 2Format : DTSFormat/Info : Digital Theater SystemsMode : 16Format settings, Endianness : BigCodec ID : A_DTSDuration : 1h 32mnBit rate mode : ConstantBit rate : 1 509 KbpsChannel(s) : 6 channelsChannel positions : Front: L C R, Side: L R, LFESampling rate : 48.0 KHzBit depth : 24 bitsCompression mode : LossyStream size : 1 000 MiB (13%)Default : YesForced : No
Menu00:00:00.000 : en:00:00:00.00000:01:22.000 : en:00:01:22.00000:06:14.000 : en:00:06:14.00000:11:56.000 : en:00:11:56.00000:12:36.000 : en:00:12:36.00000:18:58.000 : en:00:18:58.00000:22:32.000 : en:00:22:32.00000:28:03.000 : en:00:28:03.00000:32:22.000 : en:00:32:22.00000:37:34.000 : en:00:37:34.00000:38:17.000 : en:00:38:17.00000:42:41.000 : en:00:42:41.00000:46:08.000 : en:00:46:08.00000:46:23.000 : en:00:46:23.00000:51:44.000 : en:00:51:44.00000:52:51.000 : en:00:52:51.00000:56:24.000 : en:00:56:24.00001:01:55.000 : en:01:01:55.00001:02:53.000 : en:01:02:53.00001:08:54.000 : en:01:08:54.00001:14:31.000 : en:01:14:31.00001:19:18.000 : en:01:19:18.00001:21:05.000 : en:01:21:05.00001:24:03.000 : en:01:24:03.00001:28:20.000 : en:01:28:20.000

Скрины


Other forum [Profile] [PM]
Display posts from previous:    
Reply to topic

The time now is: Today 10:11

All times are GMT + 3 Hours



You cannot post new topics in this forum
You cannot reply to topics in this forum
You cannot edit your posts in this forum
You cannot delete your posts in this forum
You cannot vote in polls in this forum
You cannot attach files in this forum
You cannot download files in this forum